  0
SECTION
  2
HEADER
  9
$ACADVER
  1
AC1015
  9
$ACADMAINTVER
 70
    20
  9
$DWGCODEPAGE
  3
ANSI_1252
  9
$INSBASE
 10
0.0
 20
0.0
 30
0.0
  9
$EXTMIN
 10
-75.06865931217181
 20
-75.04989243351156
 30
-0.0015258207003583
  9
$EXTMAX
 10
2175.068669789551
 20
1560.049900047073
 30
0.0000000349246037
  9
$LIMMIN
 10
0.0
 20
0.0
  9
$LIMMAX
 10
2100.0
 20
1485.0
  9
$ORTHOMODE
 70
     0
  9
$REGENMODE
 70
     1
  9
$FILLMODE
 70
     1
  9
$QTEXTMODE
 70
     0
  9
$MIRRTEXT
 70
     1
  9
$LTSCALE
 40
5.0
  9
$ATTMODE
 70
     1
  9
$TEXTSIZE
 40
3.5
  9
$TRACEWID
 40
0.05
  9
$TEXTSTYLE
  7
TEXT35
  9
$CLAYER
  8
SCHRAFF
  9
$CELTYPE
  6
BYLAYER
  9
$CECOLOR
 62
   256
  9
$CELTSCALE
 40
1.0
  9
$DISPSILH
 70
     0
  9
$DIMSCALE
 40
5.0
  9
$DIMASZ
 40
3.5
  9
$DIMEXO
 40
0.0
  9
$DIMDLI
 40
0.0
  9
$DIMRND
 40
0.0
  9
$DIMDLE
 40
0.0
  9
$DIMEXE
 40
1.399999999999999
  9
$DIMTP
 40
0.0
  9
$DIMTM
 40
0.0
  9
$DIMTXT
 40
3.5
  9
$DIMCEN
 40
3.0
  9
$DIMTSZ
 40
0.0
  9
$DIMTOL
 70
     0
  9
$DIMLIM
 70
     0
  9
$DIMTIH
 70
     0
  9
$DIMTOH
 70
     0
  9
$DIMSE1
 70
     0
  9
$DIMSE2
 70
     0
  9
$DIMTAD
 70
     1
  9
$DIMZIN
 70
     8
  9
$DIMBLK
  1

  9
$DIMASO
 70
     1
  9
$DIMSHO
 70
     1
  9
$DIMPOST
  1

  9
$DIMAPOST
  1

  9
$DIMALT
 70
     0
  9
$DIMALTD
 70
     2
  9
$DIMALTF
 40
25.4
  9
$DIMLFAC
 40
1.0
  9
$DIMTOFL
 70
     1
  9
$DIMTVP
 40
0.0
  9
$DIMTIX
 70
     0
  9
$DIMSOXD
 70
     0
  9
$DIMSAH
 70
     0
  9
$DIMBLK1
  1

  9
$DIMBLK2
  1

  9
$DIMSTYLE
  2
BEMASS
  9
$DIMCLRD
 70
     3
  9
$DIMCLRE
 70
     3
  9
$DIMCLRT
 70
     3
  9
$DIMTFAC
 40
0.875
  9
$DIMGAP
 40
2.0
  9
$DIMJUST
 70
     0
  9
$DIMSD1
 70
     0
  9
$DIMSD2
 70
     0
  9
$DIMTOLJ
 70
     1
  9
$DIMTZIN
 70
     8
  9
$DIMALTZ
 70
     8
  9
$DIMALTTZ
 70
     8
  9
$DIMUPT
 70
     0
  9
$DIMDEC
 70
     2
  9
$DIMTDEC
 70
     2
  9
$DIMALTU
 70
     2
  9
$DIMALTTD
 70
     2
  9
$DIMTXSTY
  7
BEMSTIL
  9
$DIMAUNIT
 70
     0
  9
$DIMADEC
 70
     0
  9
$DIMALTRND
 40
0.0
  9
$DIMAZIN
 70
     0
  9
$DIMDSEP
 70
    44
  9
$DIMATFIT
 70
     3
  9
$DIMFRAC
 70
     0
  9
$DIMLDRBLK
  1

  9
$DIMLUNIT
 70
     2
  9
$DIMLWD
 70
    25
  9
$DIMLWE
 70
    25
  9
$DIMTMOVE
 70
     2
  9
$LUNITS
 70
     2
  9
$LUPREC
 70
     1
  9
$SKETCHINC
 40
0.1
  9
$FILLETRAD
 40
0.0
  9
$AUNITS
 70
     0
  9
$AUPREC
 70
     0
  9
$MENU
  1
ACAD
  9
$ELEVATION
 40
0.0
  9
$PELEVATION
 40
0.0
  9
$THICKNESS
 40
0.0
  9
$LIMCHECK
 70
     0
  9
$CHAMFERA
 40
0.0
  9
$CHAMFERB
 40
0.0
  9
$CHAMFERC
 40
0.0
  9
$CHAMFERD
 40
0.0
  9
$SKPOLY
 70
     0
  9
$TDCREATE
 40
2450029.588839815
  9
$TDUCREATE
 40
2450029.547173148
  9
$TDUPDATE
 40
2456372.463405799
  9
$TDUUPDATE
 40
2456372.421739132
  9
$TDINDWG
 40
0.1310593056
  9
$TDUSRTIMER
 40
0.1310593056
  9
$USRTIMER
 70
     1
  9
$ANGBASE
 50
0.0
  9
$ANGDIR
 70
     0
  9
$PDMODE
 70
     0
  9
$PDSIZE
 40
0.0
  9
$PLINEWID
 40
0.0
  9
$SPLFRAME
 70
     0
  9
$SPLINETYPE
 70
     6
  9
$SPLINESEGS
 70
     8
  9
$HANDSEED
  5
BDA
  9
$SURFTAB1
 70
     6
  9
$SURFTAB2
 70
     6
  9
$SURFTYPE
 70
     6
  9
$SURFU
 70
     6
  9
$SURFV
 70
     6
  9
$UCSBASE
  2

  9
$UCSNAME
  2

  9
$UCSORG
 10
0.0
 20
0.0
 30
0.0
  9
$UCSXDIR
 10
1.0
 20
0.0
 30
0.0
  9
$UCSYDIR
 10
0.0
 20
1.0
 30
0.0
  9
$UCSORTHOREF
  2

  9
$UCSORTHOVIEW
 70
     0
  9
$UCSORGTOP
 10
0.0
 20
0.0
 30
0.0
  9
$UCSORGBOTTOM
 10
0.0
 20
0.0
 30
0.0
  9
$UCSORGLEFT
 10
0.0
 20
0.0
 30
0.0
  9
$UCSORGRIGHT
 10
0.0
 20
0.0
 30
0.0
  9
$UCSORGFRONT
 10
0.0
 20
0.0
 30
0.0
  9
$UCSORGBACK
 10
0.0
 20
0.0
 30
0.0
  9
$PUCSBASE
  2

  9
$PUCSNAME
  2

  9
$PUCSORG
 10
0.0
 20
0.0
 30
0.0
  9
$PUCSXDIR
 10
1.0
 20
0.0
 30
0.0
  9
$PUCSYDIR
 10
0.0
 20
1.0
 30
0.0
  9
$PUCSORTHOREF
  2

  9
$PUCSORTHOVIEW
 70
     0
  9
$PUCSORGTOP
 10
0.0
 20
0.0
 30
0.0
  9
$PUCSORGBOTTOM
 10
0.0
 20
0.0
 30
0.0
  9
$PUCSORGLEFT
 10
0.0
 20
0.0
 30
0.0
  9
$PUCSORGRIGHT
 10
0.0
 20
0.0
 30
0.0
  9
$PUCSORGFRONT
 10
0.0
 20
0.0
 30
0.0
  9
$PUCSORGBACK
 10
0.0
 20
0.0
 30
0.0
  9
$USERI1
 70
     0
  9
$USERI2
 70
     0
  9
$USERI3
 70
     0
  9
$USERI4
 70
     0
  9
$USERI5
 70
     0
  9
$USERR1
 40
0.0
  9
$USERR2
 40
0.0
  9
$USERR3
 40
0.0
  9
$USERR4
 40
0.0
  9
$USERR5
 40
0.0
  9
$WORLDVIEW
 70
     1
  9
$SHADEDGE
 70
     3
  9
$SHADEDIF
 70
    70
  9
$TILEMODE
 70
     1
  9
$MAXACTVP
 70
    16
  9
$PINSBASE
 10
0.0
 20
0.0
 30
0.0
  9
$PLIMCHECK
 70
     0
  9
$PEXTMIN
 10
1.000000000000000E+20
 20
1.000000000000000E+20
 30
1.000000000000000E+20
  9
$PEXTMAX
 10
-1.000000000000000E+20
 20
-1.000000000000000E+20
 30
-1.000000000000000E+20
  9
$PLIMMIN
 10
0.0
 20
0.0
  9
$PLIMMAX
 10
417.0
 20
288.0
  9
$UNITMODE
 70
     0
  9
$VISRETAIN
 70
     0
  9
$PLINEGEN
 70
     0
  9
$PSLTSCALE
 70
     0
  9
$TREEDEPTH
 70
  3020
  9
$CMLSTYLE
  2
STANDARD
  9
$CMLJUST
 70
     0
  9
$CMLSCALE
 40
1.0
  9
$PROXYGRAPHICS
 70
     1
  9
$MEASUREMENT
 70
     0
  9
$CELWEIGHT
370
    -1
  9
$ENDCAPS
280
     0
  9
$JOINSTYLE
280
     0
  9
$LWDISPLAY
290
     0
  9
$INSUNITS
 70
     0
  9
$HYPERLINKBASE
  1

  9
$STYLESHEET
  1
acad.ctb
  9
$XEDIT
290
     1
  9
$CEPSNTYPE
380
     0
  9
$PSTYLEMODE
290
     1
  9
$FINGERPRINTGUID
  2
{99277037-C77D-11D5-A918-0050DADE2D45}
  9
$VERSIONGUID
  2
{C7567701-DEA2-46EF-A221-685FAB57050D}
  9
$EXTNAMES
290
     1
  9
$PSVPSCALE
 40
0.0
  9
$OLESTARTUP
290
     0
  0
ENDSEC
  0
SECTION
  2
CLASSES
  0
CLASS
  1
DICTIONARYVAR
  2
AcDbDictionaryVar
  3
ObjectDBX Classes
 90
        0
280
     0
281
     0
  0
CLASS
  1
ACDBDICTIONARYWDFLT
  2
AcDbDictionaryWithDefault
  3
ObjectDBX Classes
 90
        0
280
     0
281
     0
  0
CLASS
  1
ACDBPLACEHOLDER
  2
AcDbPlaceHolder
  3
ObjectDBX Classes
 90
        0
280
     0
281
     0
  0
CLASS
  1
LAYOUT
  2
AcDbLayout
  3
ObjectDBX Classes
 90
        0
280
     0
281
     0
  0
CLASS
  1
MATERIAL
  2
AcDbMaterial
  3
ObjectDBX Classes
 90
     1153
280
     0
281
     0
  0
CLASS
  1
VISUALSTYLE
  2
AcDbVisualStyle
  3
ObjectDBX Classes
 90
     4095
280
     0
281
     0
  0
CLASS
  1
TABLESTYLE
  2
AcDbTableStyle
  3
ObjectDBX Classes
 90
     4095
280
     0
281
     0
  0
CLASS
  1
SCALE
  2
AcDbScale
  3
ObjectDBX Classes
 90
     1153
280
     0
281
     0
  0
CLASS
  1
MLEADERSTYLE
  2
AcDbMLeaderStyle
  3
ACDB_MLEADERSTYLE_CLASS
 90
     4095
280
     0
281
     0
  0
CLASS
  1
ACME_DOCUMENT
  2
AcMeDbDoc
  3
AcMeServices
 90
     1024
280
     0
281
     0
  0
CLASS
  1
AMGSETTINGSOBJ
  2
AmgSettingsObj
  3
"AcadM|Product Description: AutoCAD Mechanical|Company: Autodesk, Inc."
 90
     1024
280
     0
281
     0
  0
CLASS
  1
AMGOBJPROPCFG
  2
AmgObjPropCfg
  3
"AmgLay|Product Description: AutoCAD Mechanical|Company: Autodesk, Inc."
 90
     1025
280
     0
281
     0
  0
CLASS
  1
ACMESCOPE
  2
AcMeScope
  3
AcMeServices
 90
     1024
280
     0
281
     0
  0
CLASS
  1
ACMECOMMANDHISTORY
  2
AcMeCommandHistory
  3
AcMeServices
 90
     1024
280
     0
281
     0
  0
CLASS
  1
ACIMSYSVARMAN
  2
AcImSysVarManager
  3
AcMeServices
 90
     1024
280
     0
281
     0
  0
CLASS
  1
ACIMINTSYSVAR
  2
AcImIntSysVar
  3
AcMeServices
 90
     1024
280
     0
281
     0
  0
CLASS
  1
ACMEDRAWINGMAN
  2
AcMeDrawingMan
  3
AcMeServices
 90
     1024
280
     0
281
     0
  0
CLASS
  1
ACMEVIEW
  2
AcMeView
  3
AcMeServices
 90
     1024
280
     0
281
     0
  0
CLASS
  1
ACDBENTITYCACHE
  2
AcMeEntityCache
  3
AcMeServices
 90
     1024
280
     0
281
     0
  0
CLASS
  1
ACMESTATEMGR
  2
AcMeStateMgr
  3
AcMeServices
 90
     1024
280
     0
281
     0
  0
CLASS
  1
ACGREFMASTER
  2
AcGrefMaster
  3
AcAttribServices
 90
     1024
280
     0
281
     0
  0
CLASS
  1
AM_DRAWING_MGR
  2
AcDmDwgMgr
  3
AcMechDwgViewMgmt
 90
     1024
280
     0
281
     0
  0
CLASS
  1
AM_DWG_DOCUMENT
  2
AcDmDwgDocument
  3
AcMechDwgViewMgmt
 90
     1024
280
     0
281
     0
  0
CLASS
  1
AM_DWG_SHEET
  2
AcDmSheet
  3
AcMechDwgViewMgmt
 90
     1024
280
     0
281
     0
  0
CLASS
  1
AM_VIEWDIMPARMAP
  2
AcDmViewDimParMap
  3
AcMechDwgViewMgmt
 90
     1024
280
     0
281
     0
  0
CLASS
  1
AMDTINTERNALREACTOR
  2
AmdtInternalReactor
  3
AcMeServices
 90
     1024
280
     0
281
     0
  0
CLASS
  1
ACIMREALSYSVAR
  2
AcImRealSysVar
  3
AcMeServices
 90
     1024
280
     0
281
     0
  0
CLASS
  1
AM_DWGMGR_NAME
  2
AcDmDwgMgrName
  3
AcMechDwgViewMgmt
 90
     1024
280
     0
281
     0
  0
CLASS
  1
ACME_DATABASE
  2
AcMeDbDatabase
  3
AcMeServices
 90
     1024
280
     0
281
     0
  0
CLASS
  1
ACRFINSADJUSTERMGR
  2
AcRfInsAdjusterMgr
  3
AcMeServices
 90
     1024
280
     0
281
     0
  0
CLASS
  1
ACGREFACADMASTER
  2
AcGrefacadMaster
  3
AcGrefServices
 90
     1024
280
     0
281
     0
  0
CLASS
  1
AMDTMENUSTATEMGR
  2
AmdtMenuStateMgr
  3
McadcomServices
 90
     1024
280
     0
281
     0
  0
CLASS
  1
AMDTMCOMMENUSTATE
  2
AmdtMcomMenuState
  3
McadcomServices
 90
     1024
280
     0
281
     0
  0
CLASS
  1
AMIMASTER
  2
AmiMaster
  3
AmiServices
 90
     1024
280
     0
281
     0
  0
CLASS
  1
MAPIAMMOUDLE
  2
MApiAmModule
  3
MApiAmServices
 90
     1024
280
     0
281
     0
  0
CLASS
  1
ACIMSTRSYSVAR
  2
AcImStrSysVar
  3
AcMeServices
 90
     1024
280
     0
281
     0
  0
CLASS
  1
AMDTADMENUSTATE
  2
AmdtAdMenuState
  3
DesignerServices
 90
     1024
280
     0
281
     0
  0
CLASS
  1
ADAPPL
  2
AcAdAppl
  3
DesignerServices
 90
     1024
280
     0
281
     0
  0
CLASS
  1
DEPMGR
  2
AcAdDepMgr
  3
DesignerServices
 90
     1024
280
     0
281
     0
  0
CLASS
  1
PARAMMGR
  2
AcAdParamMgr
  3
DesignerServices
 90
     1024
280
     0
281
     0
  0
CLASS
  1
PARAMSCOPE
  2
AcAdParamScope
  3
DesignerServices
 90
     1024
280
     0
281
     0
  0
CLASS
  1
NAMEDAPPL
  2
AcAdNamedAppl
  3
DesignerServices
 90
     1024
280
     0
281
     0
  0
CLASS
  1
AMDTDMMENUSTATE
  2
AmdtDmMenuState
  3
AcMechDwgViewMgmt
 90
     1024
280
     0
281
     0
  0
CLASS
  1
AMDTAMMENUSTATE
  2
AmdtAmMenuState
  3
DesignerAssemblies
 90
     1024
280
     0
281
     0
  0
CLASS
  1
ACAMPROJECT
  2
AcAmProject
  3
DesignerAssemblies
 90
     1024
280
     0
281
     0
  0
CLASS
  1
ACAMGRCOMPDEF
  2
AcAmGrCompDef
  3
DesignerAssemblies
 90
     1024
280
     0
281
     0
  0
CLASS
  1
ACAMCOMPDEF
  2
AcAmCompDef
  3
DesignerAssemblies
 90
     1024
280
     0
281
     0
  0
CLASS
  1
ACAMCOMPDEFMGR
  2
AcAmCompDefMgr
  3
DesignerAssemblies
 90
     1024
280
     0
281
     0
  0
CLASS
  1
AMCONTEXTMGR
  2
AcAmContextMgr
  3
DesignerAssemblies
 90
     1024
280
     0
281
     0
  0
CLASS
  1
ACAMCONTEXTMODELER
  2
AcAmContextModeler
  3
DesignerAssemblies
 90
     1024
280
     0
281
     0
  0
CLASS
  1
ACMDATADICTIONARY
  2
AcmDataDictionary
  3
"AcmSymBB|Product Description: AutoCAD Mechanical|Company: Autodesk, Inc."
 90
     1024
280
     0
281
     0
  0
CLASS
  1
CATALOGSTATE
  2
AcAmCatalogState
  3
DesignerAssemblies
 90
     1024
280
     0
281
     0
  0
CLASS
  1
ACAMGRCOMPDEFSET
  2
AcAmGrCompDefSet
  3
DesignerAssemblies
 90
     1024
280
     0
281
     0
  0
CLASS
  1
AMDTBROWSERDBTAB
  2
AmdtBrowserDbTab
  3
McadcomServices
 90
     1024
280
     0
281
     0
  0
CLASS
  1
CBROWSERAPPOBJECT
  2
CBrowserAppObject
  3
McadcomServices
 90
     1024
280
     0
281
     0
  0
CLASS
  1
DM_PLACEHOLDER
  2
AcDmSelsetPlaceholder
  3
AcMechDwgViewMgmt
 90
     1024
280
     0
281
     0
  0
CLASS
  1
ACMSTANDARDANSI
  2
AcmStandardANSI
  3
"Amdt_StdImp|Product Description: AutoCAD Mechanical|Company: Autodesk, Inc."
 90
     1024
280
     0
281
     0
  0
CLASS
  1
ACMSURFSTANDARDANSI
  2
AcmSurfTextStdANSI
  3
"Amdt_StdImp|Product Description: AutoCAD Mechanical|Company: Autodesk, Inc."
 90
     1024
280
     0
281
     0
  0
CLASS
  1
ACMFCFSTANDARDANSI
  2
AcmFCFStdANSI
  3
"Amdt_StdImp|Product Description: AutoCAD Mechanical|Company: Autodesk, Inc."
 90
     1024
280
     0
281
     0
  0
CLASS
  1
ACMWELDSTANDARDANSI
  2
AcmWeldingStdANSI
  3
"Amdt_StdImp|Product Description: AutoCAD Mechanical|Company: Autodesk, Inc."
 90
     1024
280
     0
281
     0
  0
CLASS
  1
ACMIDSTANDARDANSI
  2
AcmIdStdANSI
  3
"Amdt_StdImp|Product Description: AutoCAD Mechanical|Company: Autodesk, Inc."
 90
     1024
280
     0
281
     0
  0
CLASS
  1
ACMDATUMSTANDARDANSI
  2
AcmDatumStdANSI
  3
"Amdt_StdImp|Product Description: AutoCAD Mechanical|Company: Autodesk, Inc."
 90
     1024
280
     0
281
     0
  0
CLASS
  1
ACMBOMSTANDARDANSI
  2
AcmBOMStdANSI
  3
"Amdt_StdImp|Product Description: AutoCAD Mechanical|Company: Autodesk, Inc."
 90
     1024
280
     0
281
     0
  0
CLASS
  1
ACMDETAILSTANDARDANSI
  2
AmdtDetailSymStdANSI
  3
"Amdt_StdImp|Product Description: AutoCAD Mechanical|Company: Autodesk, Inc."
 90
     1024
280
     0
281
     0
  0
CLASS
  1
ACMSECTIONSTANDARDANSI
  2
AmdtSectionSymStdANSI
  3
"Amdt_StdImp|Product Description: AutoCAD Mechanical|Company: Autodesk, Inc."
 90
     1024
280
     0
281
     0
  0
CLASS
  1
ACMCENTERLINESTANDARDANSI
  2
AmdtCenterLineStdANSI
  3
"Amdt_StdImp|Product Description: AutoCAD Mechanical|Company: Autodesk, Inc."
 90
     1024
280
     0
281
     0
  0
CLASS
  1
ACMTHREADLINESTANDARDANSI
  2
AmdtThreadLineStdANSI
  3
"Amdt_StdImp|Product Description: AutoCAD Mechanical|Company: Autodesk, Inc."
 90
     1024
280
     0
281
     0
  0
CLASS
  1
ACMNOTESTANDARDANSI
  2
AmdtNoteStdANSI
  3
"Amdt_StdImp|Product Description: AutoCAD Mechanical|Company: Autodesk, Inc."
 90
     1024
280
     0
281
     0
  0
CLASS
  1
ACMTAPERSTANDARDANSI
  2
AcmTaperStdANSI
  3
"Amdt_StdImp|Product Description: AutoCAD Mechanical|Company: Autodesk, Inc."
 90
     1024
280
     0
281
     0
  0
CLASS
  1
ACMANOOTATIONVIEWSTANDARDANSI
  2
AmdtAnViewStdANSI
  3
"Amdt_StdImp|Product Description: AutoCAD Mechanical|Company: Autodesk, Inc."
 90
     1024
280
     0
281
     0
  0
CLASS
  1
ACAMGLAYSTD
  2
AcAmgLayStd
  3
"AmgLay|Product Description: AutoCAD Mechanical|Company: Autodesk, Inc."
 90
     1024
280
     0
281
     0
  0
CLASS
  1
ACAMGDIMSTD
  2
AcAmgDimStd
  3
"AmgDim|Product Description: AutoCAD Mechanical|Company: Autodesk, Inc."
 90
     1024
280
     0
281
     0
  0
CLASS
  1
ACAMGHOLECHARTSTDANSI
  2
AcAmgHoleChartStdANSI
  3
AmgDim|Product Description: AutoCAD Mechanical|Company: Autodesk, Inc.
 90
     1024
280
     0
281
     0
  0
CLASS
  1
ACAMGTITLESTD
  2
AcAmgTitleStd
  3
"AmgTitle|Product Description: AutoCAD Mechanical|Company: Autodesk, Inc."
 90
     4095
280
     0
281
     0
  0
CLASS
  1
AMDTNOTETEMPLATEDB
  2
AmdtNoteTemplateDB
  3
AcmSymBB|Product Description: AutoCAD Mechanical|Company: Autodesk, Inc.
 90
     1024
280
     0
281
     0
  0
CLASS
  1
ACAMGFILTERDAT
  2
AcAmgFilterDat
  3
"AcadM|Product Description: AutoCAD Mechanical|Company: Autodesk, Inc."
 90
     1024
280
     0
281
     0
  0
CLASS
  1
SORTENTSTABLE
  2
AcDbSortentsTable
  3
ObjectDBX Classes
 90
        0
280
     0
281
     0
  0
CLASS
  1
CAMSSTRUCTBTNSTATE
  2
StructBtnState
  3
DesignerAssemblies
 90
     1024
280
     0
281
     0
  0
CLASS
  1
ACMSTANDARDDIN
  2
AcmStandardDIN
  3
"Amdt_StdImp|Product Description: AutoCAD Mechanical|Company: Autodesk, Inc."
 90
     1024
280
     0
281
     0
  0
CLASS
  1
AMDTEDGESTANDARDDIN13715
  2
AmdtEdgeStdDIN13715
  3
"Amdt_StdImp|Product Description: AutoCAD Mechanical|Company: Autodesk, Inc."
 90
     1024
280
     0
281
     0
  0
CLASS
  1
ACMSURFSTANDARDDIN2002
  2
AcmSurfTextStdDIN2002
  3
"Amdt_StdImp|Product Description: AutoCAD Mechanical|Company: Autodesk, Inc."
 90
     1024
280
     0
281
     0
  0
CLASS
  1
ACMFCFSTANDARDDIN
  2
AcmFCFStdDIN
  3
"Amdt_StdImp|Product Description: AutoCAD Mechanical|Company: Autodesk, Inc."
 90
     1024
280
     0
281
     0
  0
CLASS
  1
ACMWELDSTANDARDDIN
  2
AcmWeldingStdDIN
  3
"Amdt_StdImp|Product Description: AutoCAD Mechanical|Company: Autodesk, Inc."
 90
     1024
280
     0
281
     0
  0
CLASS
  1
ACMIDSTANDARDDIN
  2
AcmIdStdDIN
  3
"Amdt_StdImp|Product Description: AutoCAD Mechanical|Company: Autodesk, Inc."
 90
     1024
280
     0
281
     0
  0
CLASS
  1
ACMDATUMSTANDARDDIN
  2
AcmDatumStdDIN
  3
"Amdt_StdImp|Product Description: AutoCAD Mechanical|Company: Autodesk, Inc."
 90
     1024
280
     0
281
     0
  0
CLASS
  1
ACMBOMSTANDARDDIN
  2
AcmBOMStdDIN
  3
"Amdt_StdImp|Product Description: AutoCAD Mechanical|Company: Autodesk, Inc."
 90
     1024
280
     0
281
     0
  0
CLASS
  1
ACMDETAILSTANDARDDIN
  2
AmdtDetailSymStdDIN
  3
"Amdt_StdImp|Product Description: AutoCAD Mechanical|Company: Autodesk, Inc."
 90
     1024
280
     0
281
     0
  0
CLASS
  1
ACMSECTIONSTANDARDDIN
  2
AmdtSectionSymStdDIN
  3
"Amdt_StdImp|Product Description: AutoCAD Mechanical|Company: Autodesk, Inc."
 90
     1024
280
     0
281
     0
  0
CLASS
  1
ACMCENTERLINESTANDARDDIN
  2
AmdtCenterLineStdDIN
  3
"Amdt_StdImp|Product Description: AutoCAD Mechanical|Company: Autodesk, Inc."
 90
     1024
280
     0
281
     0
  0
CLASS
  1
ACMTHREADLINESTANDARDDIN
  2
AmdtThreadLineStdDIN
  3
"Amdt_StdImp|Product Description: AutoCAD Mechanical|Company: Autodesk, Inc."
 90
     1024
280
     0
281
     0
  0
CLASS
  1
ACMNOTESTANDARDDIN
  2
AmdtNoteStdDIN
  3
"Amdt_StdImp|Product Description: AutoCAD Mechanical|Company: Autodesk, Inc."
 90
     1024
280
     0
281
     0
  0
CLASS
  1
ACMTAPERSTANDARDDIN
  2
AcmTaperStdDIN
  3
"Amdt_StdImp|Product Description: AutoCAD Mechanical|Company: Autodesk, Inc."
 90
     1024
280
     0
281
     0
  0
CLASS
  1
ACMANOOTATIONVIEWSTANDARDDIN
  2
AmdtAnViewStdDIN
  3
"Amdt_StdImp|Product Description: AutoCAD Mechanical|Company: Autodesk, Inc."
 90
     1024
280
     0
281
     0
  0
CLASS
  1
ACAMGHOLECHARTSTDDIN
  2
AcAmgHoleChartStdDIN
  3
AmgDim|Product Description: AutoCAD Mechanical|Company: Autodesk, Inc.
 90
     1024
280
     0
281
     0
  0
CLASS
  1
ACMDATAENTRYBLOCK
  2
AcmDataEntryBlock
  3
AcmSymBB|Product Description: AutoCAD Mechanical|Company: Autodesk, Inc.
 90
     1024
280
     0
281
     0
  0
CLASS
  1
CELLSTYLEMAP
  2
AcDbCellStyleMap
  3
ObjectDBX Classes
 90
     1152
280
     0
281
     0
  0
ENDSEC
  0
SECTION
  2
TABLES
  0
TABLE
  2
VPORT
  5
8
330
0
100
AcDbSymbolTable
 70
     1
  0
VPORT
  5
241
330
8
100
AcDbSymbolTableRecord
100
AcDbViewportTableRecord
  2
*Active
 70
     0
 10
0.0
 20
0.0
 11
1.0
 21
1.0
 12
1050.000005238689
 22
742.500003806781
 13
0.0
 23
0.0
 14
10.0
 24
10.0
 15
20.0
 25
20.0
 16
0.0
 26
0.0
 36
1.0
 17
0.0
 27
0.0
 37
0.0
 40
1645.904416659972
 41
1.54244762954796
 42
50.0
 43
0.0
 44
0.0
 50
0.0
 51
0.0
 71
     0
 72
   100
 73
     1
 74
     1
 75
     0
 76
     0
 77
     0
 78
     0
281
     0
 65
     1
110
0.0
120
0.0
130
0.0
111
1.0
121
0.0
131
0.0
112
0.0
122
1.0
132
0.0
 79
     0
146
0.0
  0
ENDTAB
  0
TABLE
  2
LTYPE
  5
5
330
0
100
AcDbSymbolTable
 70
    25
  0
LTYPE
  5
11
330
5
100
AcDbSymbolTableRecord
100
AcDbLinetypeTableRecord
  2
BYBLOCK
 70
     0
  3

 72
    65
 73
     0
 40
0.0
  0
LTYPE
  5
12
330
5
100
AcDbSymbolTableRecord
100
AcDbLinetypeTableRecord
  2
BYLAYER
 70
     0
  3

 72
    65
 73
     0
 40
0.0
  0
LTYPE
  5
13
330
5
100
AcDbSymbolTableRecord
100
AcDbLinetypeTableRecord
  2
CONTINUOUS
 70
     0
  3
Solid line
 72
    65
 73
     0
 40
0.0
  0
LTYPE
  5
2E
330
5
100
AcDbSymbolTableRecord
100
AcDbLinetypeTableRecord
  2
AUSGEZOGEN
 70
     0
  3
Ausgezogene Linie
 72
    65
 73
     0
 40
0.0
  0
LTYPE
  5
2F
330
5
100
AcDbSymbolTableRecord
100
AcDbLinetypeTableRecord
  2
PHANTOM
 70
     0
  3
______  __  __  ______  __  __  ______  __  __ 
 72
    65
 73
     6
 40
2.5
 49
1.25
 74
     0
 49
-0.25
 74
     0
 49
0.25
 74
     0
 49
-0.25
 74
     0
 49
0.25
 74
     0
 49
-0.25
 74
     0
  0
LTYPE
  5
30
330
5
100
AcDbSymbolTableRecord
100
AcDbLinetypeTableRecord
  2
STRICHPUNKT
 70
     0
  3
__ . __ . __ . __ . __ . __ . __ . __ . __ . __
 72
    65
 73
     4
 40
1.0
 49
0.5
 74
     0
 49
-0.25
 74
     0
 49
0.0
 74
     0
 49
-0.25
 74
     0
  0
LTYPE
  5
31
330
5
100
AcDbSymbolTableRecord
100
AcDbLinetypeTableRecord
  2
GETRENNT
 70
     0
  3
____ . . ____ . . ____ . . ____ . . ____ . . __
 72
    65
 73
     6
 40
1.25
 49
0.5
 74
     0
 49
-0.25
 74
     0
 49
0.0
 74
     0
 49
-0.25
 74
     0
 49
0.0
 74
     0
 49
-0.25
 74
     0
  0
LTYPE
  5
32
330
5
100
AcDbSymbolTableRecord
100
AcDbLinetypeTableRecord
  2
GESTRICHELT
 70
     0
  3
__ __ __ __ __ __ __ __ __ __ __ __ __ __ __ __
 72
    65
 73
     2
 40
0.75
 49
0.5
 74
     0
 49
-0.25
 74
     0
  0
LTYPE
  5
29F
330
5
100
AcDbSymbolTableRecord
100
AcDbLinetypeTableRecord
  2
AM_ISO02W050
 70
     0
  3
__ __ __ __ __ __ __ __ __ __ __ __ __ __ __
 72
    65
 73
     2
 40
7.5
 49
6.0
 74
     0
 49
-1.5
 74
     0
  0
LTYPE
  5
2A0
330
5
100
AcDbSymbolTableRecord
100
AcDbLinetypeTableRecord
  2
AM_ISO08W050
 70
     0
  3
____ . ____ . ____ . ____ . ____ . ____ . ____
 72
    65
 73
     4
 40
18.0
 49
12.0
 74
     0
 49
-1.5
 74
     0
 49
3.0
 74
     0
 49
-1.5
 74
     0
  0
LTYPE
  5
2A1
330
5
100
AcDbSymbolTableRecord
100
AcDbLinetypeTableRecord
  2
AM_ISO09W050
 70
     0
  3
_____ . . _____ . . _____ . . ____ .. ____
 72
    65
 73
     6
 40
22.5
 49
12.0
 74
     0
 49
-1.5
 74
     0
 49
3.0
 74
     0
 49
-1.5
 74
     0
 49
3.0
 74
     0
 49
-1.5
 74
     0
  0
LTYPE
  5
2A2
330
5
100
AcDbSymbolTableRecord
100
AcDbLinetypeTableRecord
  2
Amconstr
 70
     0
  3
_______________________
 72
    65
 73
     2
 40
9999.0
 49
9999.0
 74
     0
 49
0.0
 74
     0
  0
LTYPE
  5
2A3
330
5
100
AcDbSymbolTableRecord
100
AcDbLinetypeTableRecord
  2
AM_ISO08W050x2
 70
     0
  3
__ . __ . __ . __ . __ . __
 72
    65
 73
     4
 40
9.0
 49
6.0
 74
     0
 49
-0.75
 74
     0
 49
1.5
 74
     0
 49
-0.75
 74
     0
  0
LTYPE
  5
2A4
330
5
100
AcDbSymbolTableRecord
100
AcDbLinetypeTableRecord
  2
AM_ISO02W050x2
 70
     0
  3
 _ _ _ _ _ _ _ _ _ _ _ _
 72
    65
 73
     2
 40
3.75
 49
3.0
 74
     0
 49
-0.75
 74
     0
  0
LTYPE
  5
2A7
330
5
100
AcDbSymbolTableRecord
100
AcDbLinetypeTableRecord
  2
Amzigzag
 70
     0
  3
/\/-/\/-/\/-/\/-/\/-/\/
 72
    65
 73
     2
 40
11.0001
 49
0.0001
 74
     4
 75
   136
340
2A6
 46
0.04
 50
0.0
 44
0.0
 45
0.0
 49
-11.0
 74
     0
  0
LTYPE
  5
2D5
330
5
100
AcDbSymbolTableRecord
100
AcDbLinetypeTableRecord
  2
HIDDEN
 70
     0
  3
Verdeckt
 72
    65
 73
     2
 40
0.375
 49
0.25
 74
     0
 49
-0.125
 74
     0
  0
LTYPE
  5
2D6
330
5
100
AcDbSymbolTableRecord
100
AcDbLinetypeTableRecord
  2
PHANTOM2
 70
     0
  3
Phantom (.5x) ___ _ _ ___ _ _ ___ _ _ ___ _ _
 72
    65
 73
     6
 40
1.25
 49
0.625
 74
     0
 49
-0.125
 74
     0
 49
0.125
 74
     0
 49
-0.125
 74
     0
 49
0.125
 74
     0
 49
-0.125
 74
     0
  0
LTYPE
  5
2D7
330
5
100
AcDbSymbolTableRecord
100
AcDbLinetypeTableRecord
  2
CENTER
 70
     0
  3
Mitte ____ _ ____ _ ____ _ ____ _ ____ _ ____
 72
    65
 73
     4
 40
2.0
 49
1.25
 74
     0
 49
-0.25
 74
     0
 49
0.25
 74
     0
 49
-0.25
 74
     0
  0
LTYPE
  5
327
330
5
100
AcDbSymbolTableRecord
100
AcDbLinetypeTableRecord
  2
CENTER2
 70
     0
  3
Center (.5x) ___ _ ___ _ ___ _ ___ _ ___ _ ___
 72
    65
 73
     4
 40
1.125
 49
0.75
 74
     0
 49
-0.125
 74
     0
 49
0.125
 74
     0
 49
-0.125
 74
     0
  0
LTYPE
  5
328
330
5
100
AcDbSymbolTableRecord
100
AcDbLinetypeTableRecord
  2
HIDDEN2
 70
     0
  3
Hidden (.5x) _ _ _ _ _ _ _ _ _ _ _ _ _ _ _ _ _
 72
    65
 73
     2
 40
0.1875
 49
0.125
 74
     0
 49
-0.0625
 74
     0
  0
LTYPE
  5
329
330
5
100
AcDbSymbolTableRecord
100
AcDbLinetypeTableRecord
  2
Amzigzag2
 70
     0
  3
/\/-/\/-/\/-/\/-/\/-/\/
 72
    65
 73
     2
 40
0.4401
 49
0.0001
 74
     4
 75
   136
340
2A6
 46
0.0016
 50
0.0
 44
0.0
 45
0.0
 49
-0.4400000000000001
 74
     0
  0
LTYPE
  5
32B
330
5
100
AcDbSymbolTableRecord
100
AcDbLinetypeTableRecord
  2
ACANSTGB
 70
     0
  3
__ . . __ . .
 72
    65
 73
     6
 40
0.35433070866
 49
0.15748031496
 74
     0
 49
-0.03937007874
 74
     0
 49
0.03937007874
 74
     0
 49
-0.03937007874
 74
     0
 49
0.03937007874
 74
     0
 49
-0.03937007874
 74
     0
  0
LTYPE
  5
32C
330
5
100
AcDbSymbolTableRecord
100
AcDbLinetypeTableRecord
  2
ACANSTGL
 70
     0
  3
_ _ _ _ _
 72
    65
 73
     2
 40
0.11811023622
 49
0.07874015748
 74
     0
 49
-0.03937007874
 74
     0
  0
LTYPE
  5
478
330
5
100
AcDbSymbolTableRecord
100
AcDbLinetypeTableRecord
  2
ACDINWELD
 70
     0
  3
_ _ _ _ _
 72
    65
 73
     2
 40
2.0
 49
2.0
 74
     0
 49
-1.0
 74
     0
  0
LTYPE
  5
479
330
5
100
AcDbSymbolTableRecord
100
AcDbLinetypeTableRecord
  2
ACDINTGB
 70
     0
  3
__ . . __ . .
 72
    65
 73
     6
 40
9.0
 49
4.0
 74
     0
 49
-1.0
 74
     0
 49
1.0
 74
     0
 49
-1.0
 74
     0
 49
1.0
 74
     0
 49
-1.0
 74
     0
  0
LTYPE
  5
47A
330
5
100
AcDbSymbolTableRecord
100
AcDbLinetypeTableRecord
  2
ACDINTGL
 70
     0
  3
_ _ _ _ _
 72
    65
 73
     2
 40
3.0
 49
2.0
 74
     0
 49
-1.0
 74
     0
  0
ENDTAB
  0
TABLE
  2
LAYER
  5
2
102
{ACAD_XDICTIONARY
360
3AD
102
}
330
0
100
AcDbSymbolTable
 70
    24
  0
LAYER
  5
E
102
{ACAD_XDICTIONARY
360
3D0
102
}
330
2
100
AcDbSymbolTableRecord
100
AcDbLayerTableRecord
  2
0
 70
     0
 62
     7
  6
CONTINUOUS
370
    -3
390
19D
  0
LAYER
  5
3B
102
{ACAD_XDICTIONARY
360
3D2
102
}
330
2
100
AcDbSymbolTableRecord
100
AcDbLayerTableRecord
  2
SICHTBAR
 70
     0
 62
     7
  6
CONTINUOUS
370
    -3
390
19D
  0
LAYER
  5
3C
102
{ACAD_XDICTIONARY
360
3D4
102
}
330
2
100
AcDbSymbolTableRecord
100
AcDbLayerTableRecord
  2
MITTE
 70
     0
 62
     1
  6
STRICHPUNKT
370
    -3
390
19D
  0
LAYER
  5
3D
102
{ACAD_XDICTIONARY
360
3D6
102
}
330
2
100
AcDbSymbolTableRecord
100
AcDbLayerTableRecord
  2
TEXT50
 70
     0
 62
     7
  6
CONTINUOUS
370
    -3
390
19D
  0
LAYER
  5
3E
102
{ACAD_XDICTIONARY
360
3D8
102
}
330
2
100
AcDbSymbolTableRecord
100
AcDbLayerTableRecord
  2
TEXT35
 70
     0
 62
   143
  6
CONTINUOUS
370
    -3
390
19D
  0
LAYER
  5
3F
102
{ACAD_XDICTIONARY
360
3DA
102
}
330
2
100
AcDbSymbolTableRecord
100
AcDbLayerTableRecord
  2
TEXT25
 70
     0
 62
     3
  6
CONTINUOUS
370
    -3
390
19D
  0
LAYER
  5
41
102
{ACAD_XDICTIONARY
360
3DC
102
}
330
2
100
AcDbSymbolTableRecord
100
AcDbLayerTableRecord
  2
KOPF
 70
     0
 62
    12
  6
AUSGEZOGEN
370
    -3
390
19D
  0
LAYER
  5
43
102
{ACAD_XDICTIONARY
360
3DE
102
}
330
2
100
AcDbSymbolTableRecord
100
AcDbLayerTableRecord
  2
TEXT100
 70
     0
 62
     7
  6
CONTINUOUS
370
    -3
390
19D
  0
LAYER
  5
44
102
{ACAD_XDICTIONARY
360
3E0
102
}
330
2
100
AcDbSymbolTableRecord
100
AcDbLayerTableRecord
  2
SCHRAFF
 70
     0
 62
     6
  6
CONTINUOUS
370
    -3
390
19D
  0
LAYER
  5
46
102
{ACAD_XDICTIONARY
360
3E2
102
}
330
2
100
AcDbSymbolTableRecord
100
AcDbLayerTableRecord
  2
VERDECKT
 70
     0
 62
     2
  6
GESTRICHELT
370
    -3
390
19D
  0
LAYER
  5
47
102
{ACAD_XDICTIONARY
360
3E4
102
}
330
2
100
AcDbSymbolTableRecord
100
AcDbLayerTableRecord
  2
TEXT70
 70
     0
 62
     9
  6
CONTINUOUS
370
    -3
390
19D
  0
LAYER
  5
48
102
{ACAD_XDICTIONARY
360
3E6
102
}
330
2
100
AcDbSymbolTableRecord
100
AcDbLayerTableRecord
  2
GETRENNT
 70
     0
 62
     5
  6
GETRENNT
370
    -3
390
19D
  0
LAYER
  5
49
102
{ACAD_XDICTIONARY
360
3E8
102
}
330
2
100
AcDbSymbolTableRecord
100
AcDbLayerTableRecord
  2
DUENN
 70
     0
 62
     4
  6
CONTINUOUS
370
    -3
390
19D
  0
LAYER
  5
4A
102
{ACAD_XDICTIONARY
360
3EA
102
}
330
2
100
AcDbSymbolTableRecord
100
AcDbLayerTableRecord
  2
DUENN-18
 70
     0
 62
    94
  6
CONTINUOUS
370
    -3
390
19D
  0
LAYER
  5
4C
102
{ACAD_XDICTIONARY
360
3EC
102
}
330
2
100
AcDbSymbolTableRecord
100
AcDbLayerTableRecord
  2
BEMASS
 70
     0
 62
     3
  6
CONTINUOUS
370
    -3
390
19D
  0
LAYER
  5
4D
102
{ACAD_XDICTIONARY
360
3EE
102
}
330
2
100
AcDbSymbolTableRecord
100
AcDbLayerTableRecord
  2
BEMM
 70
     0
 62
     6
  6
CONTINUOUS
370
    -3
390
19D
  0
LAYER
  5
4E
330
2
100
AcDbSymbolTableRecord
100
AcDbLayerTableRecord
  2
DEFPOINTS
 70
     0
 62
     7
  6
CONTINUOUS
290
     0
370
    -3
390
19D
  0
LAYER
  5
4F
102
{ACAD_XDICTIONARY
360
3F0
102
}
330
2
100
AcDbSymbolTableRecord
100
AcDbLayerTableRecord
  2
BEMASS-25
 70
     0
 62
     3
  6
CONTINUOUS
370
    -3
390
19D
  0
LAYER
  5
50
102
{ACAD_XDICTIONARY
360
3F2
102
}
330
2
100
AcDbSymbolTableRecord
100
AcDbLayerTableRecord
  2
TEXT20
 70
     0
 62
     4
  6
CONTINUOUS
370
    -3
390
19D
  0
LAYER
  5
52
102
{ACAD_XDICTIONARY
360
3F4
102
}
330
2
100
AcDbSymbolTableRecord
100
AcDbLayerTableRecord
  2
KONTROLL-BEMM
 70
     0
 62
     1
  6
CONTINUOUS
370
    -3
390
19D
  0
LAYER
  5
33D
102
{ACAD_XDICTIONARY
360
3F6
102
}
330
2
100
AcDbSymbolTableRecord
100
AcDbLayerTableRecord
  2
AM_BOR
 70
     0
 62
     7
  6
CONTINUOUS
370
    -3
390
19D
  0
LAYER
  5
3AB
102
{ACAD_XDICTIONARY
360
3F8
102
}
330
2
100
AcDbSymbolTableRecord
100
AcDbLayerTableRecord
  2
Sperrlayer
 70
     0
 62
     7
  6
CONTINUOUS
370
    50
390
19D
  0
LAYER
  5
47B
330
2
100
AcDbSymbolTableRecord
100
AcDbLayerTableRecord
  2
AM_5
 70
     0
 62
     3
  6
CONTINUOUS
370
    15
390
19D
  0
LAYER
  5
47C
330
2
100
AcDbSymbolTableRecord
100
AcDbLayerTableRecord
  2
PN
 70
     0
 62
     7
  6
CONTINUOUS
370
    -3
390
19D
  0
ENDTAB
  0
TABLE
  2
STYLE
  5
3
330
0
100
AcDbSymbolTable
 70
    21
  0
STYLE
  5
F
330
3
100
AcDbSymbolTableRecord
100
AcDbTextStyleTableRecord
  2
STANDARD
 70
     0
 40
0.0
 41
0.8
 50
0.0
 71
     0
 42
3.5
  3
SIMPLEX.SHX
  4

  0
STYLE
  5
1D
330
3
100
AcDbSymbolTableRecord
100
AcDbTextStyleTableRecord
  2
TEXT50
 70
     0
 40
5.0
 41
0.8
 50
0.0
 71
     0
 42
5.0
  3
isocp3.shx
  4

  0
STYLE
  5
1E
330
3
100
AcDbSymbolTableRecord
100
AcDbTextStyleTableRecord
  2
BEMSTIL
 70
     0
 40
0.0
 41
0.8
 50
0.0
 71
     0
 42
3.5
  3
simplex.shx
  4

  0
STYLE
  5
1F
330
3
100
AcDbSymbolTableRecord
100
AcDbTextStyleTableRecord
  2
BEMASS-25
 70
     0
 40
0.0
 41
0.8
 50
0.0
 71
     0
 42
2.5
  3
simplex.shx
  4

  0
STYLE
  5
20
330
3
100
AcDbSymbolTableRecord
100
AcDbTextStyleTableRecord
  2
TEXT100
 70
     0
 40
10.0
 41
0.8
 50
0.0
 71
     0
 42
2.5
  3
isocp3.shx
  4

  0
STYLE
  5
21
330
3
100
AcDbSymbolTableRecord
100
AcDbTextStyleTableRecord
  2
TEXT35
 70
     0
 40
3.5
 41
0.8
 50
0.0
 71
     0
 42
3.5
  3
isocp3.shx
  4

  0
STYLE
  5
22
330
3
100
AcDbSymbolTableRecord
100
AcDbTextStyleTableRecord
  2
TEXT70
 70
     0
 40
7.0
 41
0.8
 50
0.0
 71
     0
 42
7.0
  3
isocp3.shx
  4

  0
STYLE
  5
23
330
3
100
AcDbSymbolTableRecord
100
AcDbTextStyleTableRecord
  2
TEXT25
 70
     0
 40
2.5
 41
0.8
 50
0.0
 71
     0
 42
2.5
  3
isocp3.shx
  4

  0
STYLE
  5
28
330
3
100
AcDbSymbolTableRecord
100
AcDbTextStyleTableRecord
  2
ROMANS8
 70
     0
 40
2.1
 41
0.7
 50
0.0
 71
     0
 42
2.1
  3
ROMANS8.SHX
  4

  0
STYLE
  5
29
330
3
100
AcDbSymbolTableRecord
100
AcDbTextStyleTableRecord
  2
TEXT20
 70
     0
 40
2.0
 41
0.8
 50
0.0
 71
     0
 42
2.0
  3
isocp3.shx
  4

  0
STYLE
  5
2A
330
3
100
AcDbSymbolTableRecord
100
AcDbTextStyleTableRecord
  2
FUTURA
 70
     0
 40
10.0
 41
0.8
 50
0.0
 71
     0
 42
10.0
  3
futura.shx
  4

  0
STYLE
  5
2D
330
3
100
AcDbSymbolTableRecord
100
AcDbTextStyleTableRecord
  2
COMPLEX
 70
     0
 40
5.0
 41
0.8
 50
0.0
 71
     0
 42
5.0
  3
COMPLEX.SHX
  4

  0
STYLE
  5
2A6
330
3
100
AcDbSymbolTableRecord
100
AcDbTextStyleTableRecord
  2

 70
     1
 40
0.0
 41
1.0
 50
0.0
 71
     0
 42
2.5
  3
genltshp.shx
  4

  0
STYLE
  5
326
330
3
100
AcDbSymbolTableRecord
100
AcDbTextStyleTableRecord
  2
ACANSTS
 70
     0
 40
1.0
 41
1.0
 50
0.0
 71
     0
 42
2.5
  3
romans.shx
  4

  0
STYLE
  5
32A
330
3
100
AcDbSymbolTableRecord
100
AcDbTextStyleTableRecord
  2
ACANSGDT
 70
     0
 40
0.0
 41
1.0
 50
0.0
 71
     0
 42
2.5
  3
amgdt.shx
  4

  0
STYLE
  5
37A
330
3
100
AcDbSymbolTableRecord
100
AcDbTextStyleTableRecord
  2
ROMANC
 70
     0
 40
2.6
 41
0.8
 50
0.0
 71
     0
 42
2.6
  3
romanc
  4

  0
STYLE
  5
37B
330
3
100
AcDbSymbolTableRecord
100
AcDbTextStyleTableRecord
  2
SIMPLEX
 70
     0
 40
0.0
 41
1.0
 50
0.0
 71
     0
 42
3.5
  3
simplex
  4

  0
STYLE
  5
3AC
330
3
100
AcDbSymbolTableRecord
100
AcDbTextStyleTableRecord
  2
Logo
 70
     0
 40
5.0
 41
1.0
 50
0.0
 71
     0
 42
5.0
  3
sanssb__.ttf
  4

1001
ACAD
1000
SansSerif
1071
 33554946
  0
STYLE
  5
47D
330
3
100
AcDbSymbolTableRecord
100
AcDbTextStyleTableRecord
  2

 70
     1
 40
0.0
 41
1.0
 50
0.0
 71
     0
 42
2.5
  3
ltypeshp.shx
  4

  0
STYLE
  5
47E
330
3
100
AcDbSymbolTableRecord
100
AcDbTextStyleTableRecord
  2
ACDINGDT
 70
     0
 40
0.0
 41
1.0
 50
0.0
 71
     0
 42
2.5
  3
amgdt.shx
  4

  0
ENDTAB
  0
TABLE
  2
VIEW
  5
6
330
0
100
AcDbSymbolTable
 70
     8
  0
VIEW
  5
33
330
6
100
AcDbSymbolTableRecord
100
AcDbViewTableRecord
  2
KOMPLETT
 70
     0
 40
582.0
 10
407.0
 20
291.0
 41
814.0
 11
0.0
 21
0.0
 31
1.0
 12
0.0
 22
0.0
 32
0.0
 42
50.0
 43
0.0
 44
0.0
 50
0.0
 71
     0
281
     0
 72
     0
  0
ENDTAB
  0
TABLE
  2
UCS
  5
7
330
0
100
AcDbSymbolTable
 70
     0
  0
ENDTAB
  0
TABLE
  2
APPID
  5
9
330
0
100
AcDbSymbolTable
 70
    23
  0
APPID
  5
10
330
9
100
AcDbSymbolTableRecord
100
AcDbRegAppTableRecord
  2
ACAD
 70
     0
  0
APPID
  5
2AA
330
9
100
AcDbSymbolTableRecord
100
AcDbRegAppTableRecord
  2
MCAD_NO_VIS
 70
     0
  0
APPID
  5
2AB
330
9
100
AcDbSymbolTableRecord
100
AcDbRegAppTableRecord
  2
ACAD_TEMP_GRAPHIC
 70
     0
  0
APPID
  5
2D9
330
9
100
AcDbSymbolTableRecord
100
AcDbRegAppTableRecord
  2
AD_DRAW
 70
     0
  0
APPID
  5
2DC
330
9
100
AcDbSymbolTableRecord
100
AcDbRegAppTableRecord
  2
ACATTRIBSERVICES
 70
     0
  0
APPID
  5
2FC
330
9
100
AcDbSymbolTableRecord
100
AcDbRegAppTableRecord
  2
DESIGNERASSEMBLIES
 70
     0
  0
APPID
  5
302
330
9
100
AcDbSymbolTableRecord
100
AcDbRegAppTableRecord
  2
ACADM_DIM_EDIT
 70
     0
  0
APPID
  5
303
330
9
100
AcDbSymbolTableRecord
100
AcDbRegAppTableRecord
  2
AMDT_DM_ADJ
 70
     0
  0
APPID
  5
319
330
9
100
AcDbSymbolTableRecord
100
AcDbRegAppTableRecord
  2
ACAD_DSTYLE_DIMJAG
 70
     0
  0
APPID
  5
31A
330
9
100
AcDbSymbolTableRecord
100
AcDbRegAppTableRecord
  2
ACAD_DSTYLE_DIMBREAK
 70
     0
  0
APPID
  5
333
330
9
100
AcDbSymbolTableRecord
100
AcDbRegAppTableRecord
  2
GENIUS_GENSCREG_15
 70
     0
  0
APPID
  5
334
330
9
100
AcDbSymbolTableRecord
100
AcDbRegAppTableRecord
  2
GENIUS_GENODEF_13
 70
     0
  0
APPID
  5
335
330
9
100
AcDbSymbolTableRecord
100
AcDbRegAppTableRecord
  2
GENIUS_GENOBJ-N-SDF_13
 70
     0
  0
APPID
  5
487
330
9
100
AcDbSymbolTableRecord
100
AcDbRegAppTableRecord
  2
GENIUS_GENDTOL_13
 70
     0
  0
APPID
  5
789
330
9
100
AcDbSymbolTableRecord
100
AcDbRegAppTableRecord
  2
GENIUS_GENDIMSH_14
 70
     0
  0
APPID
  5
AC0
330
9
100
AcDbSymbolTableRecord
100
AcDbRegAppTableRecord
  2
ACAD_EXEMPT_FROM_CAD_STANDARDS
 70
     0
  0
APPID
  5
B52
330
9
100
AcDbSymbolTableRecord
100
AcDbRegAppTableRecord
  2
ACAD_PSEXT
 70
     0
  0
APPID
  5
BD4
330
9
100
AcDbSymbolTableRecord
100
AcDbRegAppTableRecord
  2
ACAD_MLEADERVER
 70
     0
  0
APPID
  5
BD5
330
9
100
AcDbSymbolTableRecord
100
AcDbRegAppTableRecord
  2
ACAD_DSTYLE_DIMARC_LENGTH_SYMBOL
 70
     0
  0
APPID
  5
BD6
330
9
100
AcDbSymbolTableRecord
100
AcDbRegAppTableRecord
  2
ACAD_DSTYLE_DIM_LINETYPE
 70
     0
  0
APPID
  5
BD7
330
9
100
AcDbSymbolTableRecord
100
AcDbRegAppTableRecord
  2
ACAD_DSTYLE_DIM_EXT1_LINETYPE
 70
     0
  0
APPID
  5
BD8
330
9
100
AcDbSymbolTableRecord
100
AcDbRegAppTableRecord
  2
ACAD_DSTYLE_DIM_EXT2_LINETYPE
 70
     0
  0
APPID
  5
BD9
330
9
100
AcDbSymbolTableRecord
100
AcDbRegAppTableRecord
  2
ACAD_DSTYLE_DIMJOGGED_JOGANGLE_SYMBOL
 70
     0
  0
ENDTAB
  0
TABLE
  2
DIMSTYLE
  5
A
330
0
100
AcDbSymbolTable
 70
    20
100
AcDbDimStyleTable
 71
     4
340
143
340
38
340
36
340
37
  0
DIMSTYLE
105
36
330
A
100
AcDbSymbolTableRecord
100
AcDbDimStyleTableRecord
  2
BEMM
 70
     0
 41
7.0
 42
0.0
 43
7.0
 44
2.0
 73
     0
 74
     0
 77
     1
 78
     8
140
5.0
141
3.0
146
0.5714285714285714
147
3.0
174
     1
176
     6
177
     6
178
     7
271
     1
272
     1
284
     8
285
     8
286
     8
289
     0
340
1D
  0
DIMSTYLE
105
37
330
A
100
AcDbSymbolTableRecord
100
AcDbDimStyleTableRecord
  2
BEMASS-25
 70
     0
 41
2.5
 42
0.0
 43
7.0
 44
1.399999999999999
 73
     0
 74
     0
 77
     1
 78
     8
140
2.5
141
3.0
146
1.166666666666666
147
1.399999999999999
174
     1
176
     3
177
     3
178
     3
271
     1
272
     1
278
    44
284
     8
285
     8
286
     8
289
     0
340
1F
371
    25
372
    25
  0
DIMSTYLE
105
38
330
A
100
AcDbSymbolTableRecord
100
AcDbDimStyleTableRecord
  2
STANDARD
 70
     0
 41
3.5
 42
0.0
 43
7.0
 44
2.0
 73
     0
 74
     0
 77
     1
 78
     8
140
4.0
141
3.0
146
0.875
147
2.0
174
     1
176
   256
177
   256
178
   256
271
     1
272
     1
284
     8
285
     8
286
     8
289
     0
340
F
  0
DIMSTYLE
105
143
330
A
100
AcDbSymbolTableRecord
100
AcDbDimStyleTableRecord
  2
BEMASS
 70
     0
 41
3.5
 42
0.0
 43
0.0
 44
1.399999999999999
 73
     0
 74
     0
 77
     1
 78
     8
140
3.5
141
3.0
146
0.875
147
2.0
172
     1
176
     3
177
     3
178
     3
271
     2
272
     2
278
    44
279
     2
284
     8
285
     8
286
     8
340
1E
371
    25
372
    25
  0
DIMSTYLE
105
318
102
{ACAD_REACTORS
330
308
102
}
330
A
100
AcDbSymbolTableRecord
100
AcDbDimStyleTableRecord
  2
AM_ANSI
 70
     0
  4
mm
 41
0.12
 42
0.05
 43
0.5
 44
0.1
 47
0.1
 48
0.1
 78
     7
 79
     2
140
0.12
141
0.0
146
0.71
147
0.06
176
   256
177
   256
178
     2
274
     4
284
     7
340
F
371
    -1
372
    -1
1001
ACAD_DSTYLE_DIMJAG
1070
   388
1040
1.5
1001
ACAD_DSTYLE_DIMBREAK
1070
   391
1040
0.125
1001
ACAD_DSTYLE_DIMARC_LENGTH_SYMBOL
1070
   379
1070
     1
1001
ACAD_DSTYLE_DIM_LINETYPE
1070
   380
1005
11
1001
ACAD_DSTYLE_DIM_EXT1_LINETYPE
1070
   381
1005
11
1001
ACAD_DSTYLE_DIM_EXT2_LINETYPE
1070
   382
1005
11
  0
DIMSTYLE
105
31B
330
A
100
AcDbSymbolTableRecord
100
AcDbDimStyleTableRecord
  2
AM_ANSI$3
 70
     0
  4
mm
 41
0.12
 42
0.05
 43
0.5
 44
0.1
 47
0.1
 48
0.1
 78
     7
 79
     2
140
0.12
141
0.0
146
0.71
147
0.06
176
   256
177
   256
178
     2
274
     4
284
     7
288
     1
289
     0
340
F
371
    -1
372
    -1
1001
ACAD_DSTYLE_DIMBREAK
1070
   391
1040
0.125
1001
ACAD_DSTYLE_DIMJAG
1070
   388
1040
1.5
1001
ACAD_DSTYLE_DIMARC_LENGTH_SYMBOL
1070
   379
1070
     1
1001
ACAD_DSTYLE_DIM_LINETYPE
1070
   380
1005
11
1001
ACAD_DSTYLE_DIM_EXT1_LINETYPE
1070
   381
1005
11
1001
ACAD_DSTYLE_DIM_EXT2_LINETYPE
1070
   382
1005
11
  0
DIMSTYLE
105
31C
330
A
100
AcDbSymbolTableRecord
100
AcDbDimStyleTableRecord
  2
AM_ANSI$4
 70
     0
  4
mm
 41
0.12
 42
0.05
 43
0.5
 44
0.1
 47
0.1
 48
0.1
 78
     7
 79
     2
140
0.12
141
0.0
146
0.71
147
0.06
176
   256
177
   256
178
     2
274
     4
284
     7
288
     1
289
     0
340
F
371
    -1
372
    -1
1001
ACAD_DSTYLE_DIMBREAK
1070
   391
1040
0.125
1001
ACAD_DSTYLE_DIMJAG
1070
   388
1040
1.5
1001
ACAD_DSTYLE_DIMARC_LENGTH_SYMBOL
1070
   379
1070
     1
1001
ACAD_DSTYLE_DIM_LINETYPE
1070
   380
1005
11
1001
ACAD_DSTYLE_DIM_EXT1_LINETYPE
1070
   381
1005
11
1001
ACAD_DSTYLE_DIM_EXT2_LINETYPE
1070
   382
1005
11
  0
DIMSTYLE
105
31D
330
A
100
AcDbSymbolTableRecord
100
AcDbDimStyleTableRecord
  2
AM_ANSI$7
 70
     0
  4
mm
 41
0.12
 42
0.05
 43
0.5
 44
0.1
 47
0.1
 48
0.1
 78
     7
 79
     2
140
0.12
141
0.0
146
0.71
147
0.06
176
   256
177
   256
178
     2
274
     4
284
     7
340
F
371
    -1
372
    -1
1001
ACAD_DSTYLE_DIMBREAK
1070
   391
1040
0.125
1001
ACAD_DSTYLE_DIMJAG
1070
   388
1040
1.5
1001
ACAD_DSTYLE_DIMARC_LENGTH_SYMBOL
1070
   379
1070
     1
1001
ACAD_DSTYLE_DIM_LINETYPE
1070
   380
1005
11
1001
ACAD_DSTYLE_DIM_EXT1_LINETYPE
1070
   381
1005
11
1001
ACAD_DSTYLE_DIM_EXT2_LINETYPE
1070
   382
1005
11
  0
DIMSTYLE
105
31E
330
A
100
AcDbSymbolTableRecord
100
AcDbDimStyleTableRecord
  2
AM_ANSI$SF
 70
     0
  4
mm
 41
0.12
 42
0.05
 43
0.5
 44
0.1
 47
0.1
 48
0.1
 75
     1
 76
     1
 78
     7
 79
     2
140
0.12
141
0.0
146
0.71
147
0.06
176
   256
177
   256
178
     2
274
     4
284
     7
340
F
371
    -1
372
    -1
1001
ACAD_DSTYLE_DIMBREAK
1070
   391
1040
0.125
1001
ACAD_DSTYLE_DIMJAG
1070
   388
1040
1.5
1001
ACAD_DSTYLE_DIMARC_LENGTH_SYMBOL
1070
   379
1070
     1
1001
ACAD_DSTYLE_DIM_LINETYPE
1070
   380
1005
11
1001
ACAD_DSTYLE_DIM_EXT1_LINETYPE
1070
   381
1005
11
1001
ACAD_DSTYLE_DIM_EXT2_LINETYPE
1070
   382
1005
11
  0
DIMSTYLE
105
323
330
A
100
AcDbSymbolTableRecord
100
AcDbDimStyleTableRecord
  2
AM_ANSI$SH
 70
     0
  4
mm
 41
0.12
 42
0.05
 43
0.5
 44
0.1
 47
0.1
 48
0.1
 75
     1
 76
     1
 78
     7
 79
     2
140
0.12
141
0.0
146
0.71
147
0.06
173
     1
176
   256
177
   256
178
     2
274
     4
284
     7
340
F
343
31F
371
    -1
372
    -1
1001
ACAD_DSTYLE_DIMBREAK
1070
   391
1040
0.125
1001
ACAD_DSTYLE_DIMJAG
1070
   388
1040
1.5
1001
ACAD_DSTYLE_DIMARC_LENGTH_SYMBOL
1070
   379
1070
     1
1001
ACAD_DSTYLE_DIM_LINETYPE
1070
   380
1005
11
1001
ACAD_DSTYLE_DIM_EXT1_LINETYPE
1070
   381
1005
11
1001
ACAD_DSTYLE_DIM_EXT2_LINETYPE
1070
   382
1005
11
  0
DIMSTYLE
105
47F
102
{ACAD_REACTORS
330
5BF
330
5C0
330
5C1
330
A62
330
A63
330
A64
102
}
330
A
100
AcDbSymbolTableRecord
100
AcDbDimStyleTableRecord
  2
ISO-25
 70
     0
 40
5.0
 41
2.5
 42
0.625
 43
3.75
 44
1.25
 73
     0
 74
     0
 77
     1
 78
     8
140
2.5
141
2.5
143
0.03937007874016
147
0.625
171
     3
172
     1
271
     2
272
     2
274
     3
278
    44
283
     0
284
     8
340
F
  0
DIMSTYLE
105
480
102
{ACAD_REACTORS
330
5C5
102
}
330
A
100
AcDbSymbolTableRecord
100
AcDbDimStyleTableRecord
  2
AM_DIN
 70
     0
  4
"
 41
3.5
 42
1.0
 43
10.0
 44
1.0
 47
0.1
 48
0.1
 73
     0
 74
     0
 77
     1
 78
     8
 79
     2
140
3.5
141
0.0
143
0.0393701
146
0.71
147
1.5
172
     1
176
   256
177
   256
178
     2
271
     2
272
     3
274
     4
283
     0
284
     8
340
F
371
    -1
372
    -1
1001
ACAD_DSTYLE_DIMJAG
1070
   388
1040
1.5
1001
ACAD_DSTYLE_DIMBREAK
1070
   391
1040
3.75
1001
ACAD_DSTYLE_DIMJOGGED_JOGANGLE_SYMBOL
1070
   384
1040
1.570796326794896
1001
ACAD_DSTYLE_DIM_LINETYPE
1070
   380
1005
11
1001
ACAD_DSTYLE_DIM_EXT1_LINETYPE
1070
   381
1005
11
1001
ACAD_DSTYLE_DIM_EXT2_LINETYPE
1070
   382
1005
11
  0
DIMSTYLE
105
481
330
A
100
AcDbSymbolTableRecord
100
AcDbDimStyleTableRecord
  2
AM_DIN$3
 70
     0
  4
"
 41
3.5
 42
1.0
 43
10.0
 44
1.0
 47
0.1
 48
0.1
 73
     0
 77
     1
 78
     8
 79
     2
140
3.5
141
0.0
143
0.0393701
146
0.71
147
1.5
176
   256
177
   256
178
     2
271
     2
272
     3
274
     4
283
     0
284
     8
288
     1
289
     0
340
F
371
    -1
372
    -1
1001
ACAD_DSTYLE_DIMBREAK
1070
   391
1040
3.75
1001
ACAD_DSTYLE_DIMJAG
1070
   388
1040
1.5
1001
ACAD_DSTYLE_DIMJOGGED_JOGANGLE_SYMBOL
1070
   384
1040
1.570796326794896
1001
ACAD_DSTYLE_DIM_LINETYPE
1070
   380
1005
11
1001
ACAD_DSTYLE_DIM_EXT1_LINETYPE
1070
   381
1005
11
1001
ACAD_DSTYLE_DIM_EXT2_LINETYPE
1070
   382
1005
11
  0
DIMSTYLE
105
482
330
A
100
AcDbSymbolTableRecord
100
AcDbDimStyleTableRecord
  2
AM_DIN$4
 70
     0
  4
"
 41
3.5
 42
1.0
 43
10.0
 44
1.0
 47
0.1
 48
0.1
 73
     0
 77
     1
 78
     8
 79
     2
140
3.5
141
0.0
143
0.0393701
146
0.71
147
1.5
176
   256
177
   256
178
     2
271
     2
272
     3
274
     4
283
     0
284
     8
288
     1
289
     0
340
F
371
    -1
372
    -1
1001
ACAD_DSTYLE_DIMBREAK
1070
   391
1040
3.75
1001
ACAD_DSTYLE_DIMJAG
1070
   388
1040
1.5
1001
ACAD_DSTYLE_DIMJOGGED_JOGANGLE_SYMBOL
1070
   384
1040
1.570796326794896
1001
ACAD_DSTYLE_DIM_LINETYPE
1070
   380
1005
11
1001
ACAD_DSTYLE_DIM_EXT1_LINETYPE
1070
   381
1005
11
1001
ACAD_DSTYLE_DIM_EXT2_LINETYPE
1070
   382
1005
11
  0
DIMSTYLE
105
483
330
A
100
AcDbSymbolTableRecord
100
AcDbDimStyleTableRecord
  2
AM_DIN$6
 70
     0
  4
"
 41
3.5
 42
1.0
 43
10.0
 44
1.0
 47
0.1
 48
0.1
 73
     0
 74
     0
 78
     8
 79
     2
140
3.5
141
0.0
143
0.0393701
146
0.71
147
1.5
172
     1
176
   256
177
   256
178
     2
271
     2
272
     3
274
     4
283
     0
284
     8
340
F
371
    -1
372
    -1
1001
ACAD_DSTYLE_DIMBREAK
1070
   391
1040
3.75
1001
ACAD_DSTYLE_DIMJAG
1070
   388
1040
1.5
1001
ACAD_DSTYLE_DIMJOGGED_JOGANGLE_SYMBOL
1070
   384
1040
1.570796326794896
1001
ACAD_DSTYLE_DIM_LINETYPE
1070
   380
1005
11
1001
ACAD_DSTYLE_DIM_EXT1_LINETYPE
1070
   381
1005
11
1001
ACAD_DSTYLE_DIM_EXT2_LINETYPE
1070
   382
1005
11
  0
DIMSTYLE
105
484
330
A
100
AcDbSymbolTableRecord
100
AcDbDimStyleTableRecord
  2
AM_DIN$7
 70
     0
  4
"
 41
3.5
 42
1.0
 43
10.0
 44
1.0
 47
0.1
 48
0.1
 73
     0
 74
     0
 77
     1
 78
     8
 79
     2
140
3.5
141
0.0
143
0.0393701
146
0.71
147
1.5
172
     1
176
   256
177
   256
178
     2
271
     2
272
     3
274
     4
283
     0
284
     8
340
F
371
    -1
372
    -1
1001
ACAD_DSTYLE_DIMBREAK
1070
   391
1040
3.75
1001
ACAD_DSTYLE_DIMJAG
1070
   388
1040
1.5
1001
ACAD_DSTYLE_DIMJOGGED_JOGANGLE_SYMBOL
1070
   384
1040
1.570796326794896
1001
ACAD_DSTYLE_DIM_LINETYPE
1070
   380
1005
11
1001
ACAD_DSTYLE_DIM_EXT1_LINETYPE
1070
   381
1005
11
1001
ACAD_DSTYLE_DIM_EXT2_LINETYPE
1070
   382
1005
11
  0
DIMSTYLE
105
485
330
A
100
AcDbSymbolTableRecord
100
AcDbDimStyleTableRecord
  2
AM_DIN$SF
 70
     0
  4
"
 41
3.5
 42
1.0
 43
10.0
 44
1.0
 47
0.1
 48
0.1
 73
     0
 74
     0
 75
     1
 76
     1
 77
     1
 78
     8
 79
     2
140
3.5
141
0.0
143
0.0393701
146
0.71
147
1.5
172
     1
176
   256
177
   256
178
     2
271
     2
272
     3
274
     4
283
     0
284
     8
340
F
371
    -1
372
    -1
1001
ACAD_DSTYLE_DIMBREAK
1070
   391
1040
3.75
1001
ACAD_DSTYLE_DIMJAG
1070
   388
1040
1.5
1001
ACAD_DSTYLE_DIMJOGGED_JOGANGLE_SYMBOL
1070
   384
1040
1.570796326794896
1001
ACAD_DSTYLE_DIM_LINETYPE
1070
   380
1005
11
1001
ACAD_DSTYLE_DIM_EXT1_LINETYPE
1070
   381
1005
11
1001
ACAD_DSTYLE_DIM_EXT2_LINETYPE
1070
   382
1005
11
  0
DIMSTYLE
105
486
330
A
100
AcDbSymbolTableRecord
100
AcDbDimStyleTableRecord
  2
AM_DIN$SH
 70
     0
  4
"
 41
3.5
 42
1.0
 43
10.0
 44
1.0
 47
0.1
 48
0.1
 73
     0
 74
     0
 75
     1
 76
     1
 77
     1
 78
     8
 79
     2
140
3.5
141
0.0
143
0.0393701
144
2.0
146
0.71
147
1.5
172
     1
173
     1
176
   256
177
   256
178
     2
271
     2
272
     3
274
     4
283
     0
284
     8
340
F
343
31F
371
    -1
372
    -1
1001
ACAD_DSTYLE_DIMBREAK
1070
   391
1040
3.75
1001
ACAD_DSTYLE_DIMJAG
1070
   388
1040
1.5
1001
ACAD_DSTYLE_DIMJOGGED_JOGANGLE_SYMBOL
1070
   384
1040
1.570796326794896
1001
ACAD_DSTYLE_DIM_LINETYPE
1070
   380
1005
11
1001
ACAD_DSTYLE_DIM_EXT1_LINETYPE
1070
   381
1005
11
1001
ACAD_DSTYLE_DIM_EXT2_LINETYPE
1070
   382
1005
11
  0
ENDTAB
  0
TABLE
  2
BLOCK_RECORD
  5
1
330
0
100
AcDbSymbolTable
 70
    29
  0
BLOCK_RECORD
  5
17
102
{ACAD_XDICTIONARY
360
AD8
102
}
330
1
100
AcDbSymbolTableRecord
100
AcDbBlockTableRecord
  2
*MODEL_SPACE
340
1A0
  0
BLOCK_RECORD
  5
14
330
1
100
AcDbSymbolTableRecord
100
AcDbBlockTableRecord
  2
*PAPER_SPACE
340
1A1
  0
BLOCK_RECORD
  5
1C
330
1
100
AcDbSymbolTableRecord
100
AcDbBlockTableRecord
  2
OVAL
340
0
  0
BLOCK_RECORD
  5
31F
330
1
100
AcDbSymbolTableRecord
100
AcDbBlockTableRecord
  2
GENAXEH
340
0
  0
BLOCK_RECORD
  5
33E
330
1
100
AcDbSymbolTableRecord
100
AcDbBlockTableRecord
  2
RA_A3_AC
340
0
102
{BLKREFS
331
B8D
102
}
  0
BLOCK_RECORD
  5
3AF
102
{ACAD_XDICTIONARY
360
3C8
102
}
330
1
100
AcDbSymbolTableRecord
100
AcDbBlockTableRecord
  2
logo_hochb
340
0
  0
BLOCK_RECORD
  5
40C
330
1
100
AcDbSymbolTableRecord
100
AcDbBlockTableRecord
  2
SCHNITT
340
0
102
{BLKREFS
331
4F3
331
55B
331
8C0
331
858
331
996
331
9FE
102
}
  0
BLOCK_RECORD
  5
417
330
1
100
AcDbSymbolTableRecord
100
AcDbBlockTableRecord
  2
*X7
340
0
102
{BLKREFS
331
410
102
}
  0
BLOCK_RECORD
  5
436
330
1
100
AcDbSymbolTableRecord
100
AcDbBlockTableRecord
  2
*X8
340
0
102
{BLKREFS
331
526
331
5A7
102
}
  0
BLOCK_RECORD
  5
454
330
1
100
AcDbSymbolTableRecord
100
AcDbBlockTableRecord
  2
*D9
340
0
  0
BLOCK_RECORD
  5
460
330
1
100
AcDbSymbolTableRecord
100
AcDbBlockTableRecord
  2
*D10
340
0
  0
BLOCK_RECORD
  5
46C
330
1
100
AcDbSymbolTableRecord
100
AcDbBlockTableRecord
  2
*D11
340
0
  0
BLOCK_RECORD
  5
71A
330
1
100
AcDbSymbolTableRecord
100
AcDbBlockTableRecord
  2
*D13
340
0
  0
BLOCK_RECORD
  5
726
330
1
100
AcDbSymbolTableRecord
100
AcDbBlockTableRecord
  2
*D14
340
0
  0
BLOCK_RECORD
  5
732
330
1
100
AcDbSymbolTableRecord
100
AcDbBlockTableRecord
  2
*D15
340
0
  0
BLOCK_RECORD
  5
75A
330
1
100
AcDbSymbolTableRecord
100
AcDbBlockTableRecord
  2
SF_WEB
340
0
102
{BLKREFS
331
77D
331
B64
331
B8E
102
}
  0
BLOCK_RECORD
  5
78C
330
1
100
AcDbSymbolTableRecord
100
AcDbBlockTableRecord
  2
*X17
340
0
102
{BLKREFS
331
410
102
}
  0
BLOCK_RECORD
  5
7AB
330
1
100
AcDbSymbolTableRecord
100
AcDbBlockTableRecord
  2
*X18
340
0
102
{BLKREFS
331
90C
331
88B
331
9C9
331
A4A
102
}
  0
BLOCK_RECORD
  5
7C9
330
1
100
AcDbSymbolTableRecord
100
AcDbBlockTableRecord
  2
*D19
340
0
  0
BLOCK_RECORD
  5
7D5
330
1
100
AcDbSymbolTableRecord
100
AcDbBlockTableRecord
  2
*D20
340
0
  0
BLOCK_RECORD
  5
7E1
330
1
100
AcDbSymbolTableRecord
100
AcDbBlockTableRecord
  2
*D21
340
0
  0
BLOCK_RECORD
  5
A65
330
1
100
AcDbSymbolTableRecord
100
AcDbBlockTableRecord
  2
*D23
340
0
  0
BLOCK_RECORD
  5
A71
330
1
100
AcDbSymbolTableRecord
100
AcDbBlockTableRecord
  2
*D24
340
0
  0
BLOCK_RECORD
  5
A7D
330
1
100
AcDbSymbolTableRecord
100
AcDbBlockTableRecord
  2
*D25
340
0
  0
BLOCK_RECORD
  5
B6F
102
{ACAD_XDICTIONARY
360
B88
102
}
330
1
100
AcDbSymbolTableRecord
100
AcDbBlockTableRecord
  2
logo_hochweb
340
0
102
{BLKREFS
331
B99
102
}
  0
ENDTAB
  0
ENDSEC
  0
SECTION
  2
BLOCKS
  0
BLOCK
  5
55
330
17
100
AcDbEntity
  8
0
100
AcDbBlockBegin
  2
*MODEL_SPACE
 70
     0
 10
0.0
 20
0.0
 30
0.0
  3
*MODEL_SPACE
  1

  0
ENDBLK
  5
56
330
17
100
AcDbEntity
  8
0
100
AcDbBlockEnd
  0
BLOCK
  5
53
330
14
100
AcDbEntity
 67
     1
  8
0
100
AcDbBlockBegin
  2
*PAPER_SPACE
 70
     0
 10
0.0
 20
0.0
 30
0.0
  3
*PAPER_SPACE
  1

  0
ENDBLK
  5
54
330
14
100
AcDbEntity
 67
     1
  8
0
100
AcDbBlockEnd
  0
BLOCK
  5
59
330
1C
100
AcDbEntity
  8
0
100
AcDbBlockBegin
  2
OVAL
 70
     0
 10
0.0
 20
0.0
 30
0.0
  3
OVAL
  1

  0
LWPOLYLINE
  5
5A
330
1C
100
AcDbEntity
  8
KONTROLL-BEMM
100
AcDbPolyline
 90
        4
 70
     1
 43
0.0
 10
11.85056228432856
 20
7.583003082887785
 10
0.3505622843285607
 20
7.583003082887785
 42
1.0
 10
0.3505622843285607
 20
0.0830030828877853
 10
11.85056228432856
 20
0.0830030828877853
 42
1.0
  0
ENDBLK
  5
60
330
1C
100
AcDbEntity
  8
0
100
AcDbBlockEnd
  0
BLOCK
  5
321
330
31F
100
AcDbEntity
  8
0
100
AcDbBlockBegin
  2
GENAXEH
 70
     0
 10
0.0
 20
0.0
 30
0.0
  3
GENAXEH
  1

  0
LINE
  5
320
330
31F
100
AcDbEntity
  8
0
100
AcDbLine
 10
-1.0
 20
0.0
 30
0.0
 11
1.0
 21
0.0
 31
0.0
  0
ENDBLK
  5
322
330
31F
100
AcDbEntity
  8
0
100
AcDbBlockEnd
  0
BLOCK
  5
375
330
33E
100
AcDbEntity
  8
0
100
AcDbBlockBegin
  2
RA_A3_AC
 70
     0
 10
0.0
 20
0.0
 30
0.0
  3
RA_A3_AC
  1

  0
LINE
  5
33F
330
33E
100
AcDbEntity
  8
KOPF
100
AcDbLine
 10
435.0
 20
312.0
 30
0.0
 11
435.0
 21
-15.0
 31
0.0
  0
LINE
  5
340
330
33E
100
AcDbEntity
  8
KOPF
100
AcDbLine
 10
420.0
 20
0.0
 30
0.0
 11
0.0
 21
0.0
 31
0.0
  0
LINE
  5
341
330
33E
100
AcDbEntity
  8
KOPF
100
AcDbLine
 10
420.0
 20
297.0
 30
0.0
 11
420.0
 21
0.0
 31
0.0
  0
LINE
  5
342
330
33E
100
AcDbEntity
  8
KOPF
100
AcDbLine
 10
0.0
 20
297.0
 30
0.0
 11
420.0
 21
297.0
 31
0.0
  0
LINE
  5
343
330
33E
100
AcDbEntity
  8
KOPF
100
AcDbLine
 10
0.0
 20
0.0
 30
0.0
 11
0.0
 21
297.0
 31
0.0
  0
LWPOLYLINE
  5
344
330
33E
100
AcDbEntity
  8
KOPF
100
AcDbPolyline
 90
        4
 70
     1
 43
0.7
 10
414.0
 20
291.0
 10
414.0
 20
6.0
 10
21.0
 20
6.0
 10
21.0
 20
291.0
  0
LINE
  5
345
330
33E
100
AcDbEntity
  8
KOPF
100
AcDbLine
 10
0.0
 20
151.5
 30
0.0
 11
9.123329060608625
 21
151.5
 31
0.0
  0
TEXT
  5
346
330
33E
100
AcDbEntity
  8
KOPF
100
AcDbText
 10
405.4839301100292
 20
1.146414063727604
 30
0.0
 40
3.5
  1
A3
 41
0.8
  7
BEMSTIL
100
AcDbText
  0
LINE
  5
347
330
33E
100
AcDbEntity
  8
KOPF
100
AcDbLine
 10
91.0
 20
6.000000000000056
 30
0.0
 11
91.0
 21
3.000000000000056
 31
0.0
  0
LINE
  5
348
330
33E
100
AcDbEntity
  8
KOPF
100
AcDbLine
 10
161.0
 20
6.000000000000056
 30
0.0
 11
161.0
 21
3.000000000000056
 31
0.0
  0
LINE
  5
349
330
33E
100
AcDbEntity
  8
KOPF
100
AcDbLine
 10
231.0
 20
6.000000000000056
 30
0.0
 11
231.0
 21
3.000000000000056
 31
0.0
  0
LINE
  5
34A
330
33E
100
AcDbEntity
  8
KOPF
100
AcDbLine
 10
301.0
 20
6.000000000000056
 30
0.0
 11
301.0
 21
3.000000000000056
 31
0.0
  0
TEXT
  5
34B
330
33E
100
AcDbEntity
  8
KOPF
100
AcDbText
 10
54.66443874747984
 20
2.709844013406931
 30
0.0
 40
2.5
  1
1
 41
0.8
  7
TEXT25
100
AcDbText
  0
TEXT
  5
34C
330
33E
100
AcDbEntity
  8
KOPF
100
AcDbText
 10
124.6644387474798
 20
2.709844013406931
 30
0.0
 40
2.5
  1
2
 41
0.8
  7
TEXT25
100
AcDbText
  0
TEXT
  5
34D
330
33E
100
AcDbEntity
  8
KOPF
100
AcDbText
 10
194.6644387474798
 20
2.709844013406931
 30
0.0
 40
2.5
  1
3
 41
0.8
  7
TEXT25
100
AcDbText
  0
TEXT
  5
34E
330
33E
100
AcDbEntity
  8
KOPF
100
AcDbText
 10
264.6644387474798
 20
2.709844013406931
 30
0.0
 40
2.5
  1
4
 41
0.8
  7
TEXT25
100
AcDbText
  0
LINE
  5
34F
330
33E
100
AcDbEntity
  8
KOPF
100
AcDbLine
 10
21.0
 20
6.000000000000056
 30
0.0
 11
21.0
 21
3.000000000000056
 31
0.0
  0
LINE
  5
350
330
33E
100
AcDbEntity
  8
KOPF
100
AcDbLine
 10
21.0
 20
6.000000000000056
 30
0.0
 11
19.0
 21
6.000000000000056
 31
0.0
  0
LINE
  5
351
330
33E
100
AcDbEntity
  8
KOPF
100
AcDbLine
 10
413.9999999999999
 20
6.000000000000056
 30
0.0
 11
415.9999999999999
 21
6.000000000000056
 31
0.0
  0
LINE
  5
352
330
33E
100
AcDbEntity
  8
KOPF
100
AcDbLine
 10
413.9999999999999
 20
6.000000000000056
 30
0.0
 11
413.9999999999999
 21
3.000000000000056
 31
0.0
  0
LINE
  5
353
330
33E
100
AcDbEntity
  8
KOPF
100
AcDbLine
 10
413.9999999999999
 20
79.0
 30
0.0
 11
416.9999999999999
 21
79.0
 31
0.0
  0
LINE
  5
354
330
33E
100
AcDbEntity
  8
KOPF
100
AcDbLine
 10
413.9999999999999
 20
152.0
 30
0.0
 11
416.9999999999999
 21
152.0
 31
0.0
  0
LINE
  5
355
330
33E
100
AcDbEntity
  8
KOPF
100
AcDbLine
 10
413.9999999999999
 20
225.0
 30
0.0
 11
416.9999999999999
 21
225.0
 31
0.0
  0
LINE
  5
356
330
33E
100
AcDbEntity
  8
KOPF
100
AcDbLine
 10
413.9999999999999
 20
6.0
 30
0.0
 11
416.9999999999999
 21
6.0
 31
0.0
  0
TEXT
  5
357
330
33E
100
AcDbEntity
  8
KOPF
100
AcDbText
 10
415.6306257995392
 20
41.89443100952641
 30
0.0
 40
2.5
  1
A
 41
0.8
  7
TEXT25
100
AcDbText
  0
TEXT
  5
358
330
33E
100
AcDbEntity
  8
KOPF
100
AcDbText
 10
415.8972924662059
 20
114.8944310095264
 30
0.0
 40
2.5
  1
B
 41
0.8
  7
TEXT25
100
AcDbText
  0
TEXT
  5
359
330
33E
100
AcDbEntity
  8
KOPF
100
AcDbText
 10
415.7639591328726
 20
187.8944310095264
 30
0.0
 40
2.5
  1
C
 41
0.8
  7
TEXT25
100
AcDbText
  0
TEXT
  5
35A
330
33E
100
AcDbEntity
  8
KOPF
100
AcDbText
 10
415.8972924662059
 20
260.8944310095264
 30
0.0
 40
2.5
  1
D
 41
0.8
  7
TEXT25
100
AcDbText
  0
LINE
  5
35B
330
33E
100
AcDbEntity
  8
KOPF
100
AcDbLine
 10
413.9999999999999
 20
291.0
 30
0.0
 11
413.9999999999999
 21
294.0
 31
0.0
  0
LINE
  5
35C
330
33E
100
AcDbEntity
  8
KOPF
100
AcDbLine
 10
413.9999999999999
 20
291.0
 30
0.0
 11
415.9999999999999
 21
291.0
 31
0.0
  0
LINE
  5
35D
330
33E
100
AcDbEntity
  8
KOPF
100
AcDbLine
 10
21.0
 20
291.0
 30
0.0
 11
19.0
 21
291.0
 31
0.0
  0
LINE
  5
35E
330
33E
100
AcDbEntity
  8
KOPF
100
AcDbLine
 10
21.0
 20
291.0
 30
0.0
 11
21.0
 21
294.0
 31
0.0
  0
TEXT
  5
35F
330
33E
100
AcDbEntity
  8
KOPF
100
AcDbText
 10
396.6125957292463
 20
292.3535859362725
 30
0.0
 40
2.5
  1
6
 41
0.8
  7
TEXT25
100
AcDbText
  0
TEXT
  5
360
330
33E
100
AcDbEntity
  8
KOPF
100
AcDbText
 10
334.6644387474798
 20
292.3535859362725
 30
0.0
 40
2.5
  1
5
 41
0.8
  7
TEXT25
100
AcDbText
  0
TEXT
  5
361
330
33E
100
AcDbEntity
  8
KOPF
100
AcDbText
 10
264.6644387474798
 20
292.3535859362725
 30
0.0
 40
2.5
  1
4
 41
0.8
  7
TEXT25
100
AcDbText
  0
TEXT
  5
362
330
33E
100
AcDbEntity
  8
KOPF
100
AcDbText
 10
194.6644387474798
 20
292.3535859362725
 30
0.0
 40
2.5
  1
3
 41
0.8
  7
TEXT25
100
AcDbText
  0
TEXT
  5
363
330
33E
100
AcDbEntity
  8
KOPF
100
AcDbText
 10
124.6644387474798
 20
292.3535859362725
 30
0.0
 40
2.5
  1
2
 41
0.8
  7
TEXT25
100
AcDbText
  0
TEXT
  5
364
330
33E
100
AcDbEntity
  8
KOPF
100
AcDbText
 10
54.66443874747984
 20
292.3535859362725
 30
0.0
 40
2.5
  1
1
 41
0.8
  7
TEXT25
100
AcDbText
  0
LINE
  5
365
330
33E
100
AcDbEntity
  8
KOPF
100
AcDbLine
 10
371.0
 20
291.0
 30
0.0
 11
371.0
 21
294.0
 31
0.0
  0
LINE
  5
366
330
33E
100
AcDbEntity
  8
KOPF
100
AcDbLine
 10
301.0
 20
291.0
 30
0.0
 11
301.0
 21
294.0
 31
0.0
  0
LINE
  5
367
330
33E
100
AcDbEntity
  8
KOPF
100
AcDbLine
 10
231.0
 20
291.0
 30
0.0
 11
231.0
 21
294.0
 31
0.0
  0
LINE
  5
368
330
33E
100
AcDbEntity
  8
KOPF
100
AcDbLine
 10
161.0
 20
291.0
 30
0.0
 11
161.0
 21
294.0
 31
0.0
  0
LINE
  5
369
330
33E
100
AcDbEntity
  8
KOPF
100
AcDbLine
 10
91.0
 20
291.0
 30
0.0
 11
91.0
 21
294.0
 31
0.0
  0
TEXT
  5
36A
330
33E
100
AcDbEntity
  8
KOPF
100
AcDbText
 10
17.47344808643044
 20
260.8944310095264
 30
0.0
 40
2.5
  1
D
 41
0.8
  7
TEXT25
100
AcDbText
  0
TEXT
  5
36B
330
33E
100
AcDbEntity
  8
KOPF
100
AcDbText
 10
17.47344808643044
 20
187.8944310095264
 30
0.0
 40
2.5
  1
C
 41
0.8
  7
TEXT25
100
AcDbText
  0
TEXT
  5
36C
330
33E
100
AcDbEntity
  8
KOPF
100
AcDbText
 10
17.47344808643044
 20
114.8944310095264
 30
0.0
 40
2.5
  1
B
 41
0.8
  7
TEXT25
100
AcDbText
  0
TEXT
  5
36D
330
33E
100
AcDbEntity
  8
KOPF
100
AcDbText
 10
17.47344808643044
 20
41.8944310095264
 30
0.0
 40
2.5
  1
A
 41
0.8
  7
TEXT25
100
AcDbText
  0
LINE
  5
36E
330
33E
100
AcDbEntity
  8
KOPF
100
AcDbLine
 10
21.0
 20
6.0
 30
0.0
 11
18.0
 21
6.0
 31
0.0
  0
LINE
  5
36F
330
33E
100
AcDbEntity
  8
KOPF
100
AcDbLine
 10
21.0
 20
225.0
 30
0.0
 11
18.0
 21
225.0
 31
0.0
  0
LINE
  5
370
330
33E
100
AcDbEntity
  8
KOPF
100
AcDbLine
 10
21.0
 20
152.0
 30
0.0
 11
18.0
 21
152.0
 31
0.0
  0
LINE
  5
371
330
33E
100
AcDbEntity
  8
KOPF
100
AcDbLine
 10
21.0
 20
79.0
 30
0.0
 11
18.0
 21
79.0
 31
0.0
  0
LINE
  5
372
330
33E
100
AcDbEntity
  8
KOPF
100
AcDbLine
 10
-15.0
 20
312.0
 30
0.0
 11
435.0
 21
312.0
 31
0.0
  0
LINE
  5
373
330
33E
100
AcDbEntity
  8
KOPF
100
AcDbLine
 10
-15.0
 20
-15.0
 30
0.0
 11
-15.0
 21
312.0
 31
0.0
  0
LINE
  5
374
330
33E
100
AcDbEntity
  8
KOPF
100
AcDbLine
 10
435.0
 20
-15.0
 30
0.0
 11
-15.0
 21
-15.0
 31
0.0
  0
ENDBLK
  5
376
330
33E
100
AcDbEntity
  8
0
100
AcDbBlockEnd
  0
BLOCK
  5
3CA
330
3AF
100
AcDbEntity
  8
0
100
AcDbBlockBegin
  2
logo_hochb
 70
     0
 10
0.0
 20
0.0
 30
0.0
  3
logo_hochb
  1

  0
TEXT
  5
3B0
330
3AF
100
AcDbEntity
  8
TEXT35
100
AcDbText
 10
-43.82606427474899
 20
63.36981311573786
 30
0.0
 40
2.541000000000028
  1
ACO  
  7
TEXT50
100
AcDbText
  0
TEXT
  5
3B1
330
3AF
100
AcDbEntity
  8
DUENN
 62
     3
100
AcDbText
 10
-42.91588105257426
 20
53.0499797567701
 30
0.0
 40
1.815000000000019
  1
FAX 04331/ 354-360
 41
0.8
  7
TEXT20
100
AcDbText
  0
TEXT
  5
3B2
330
3AF
100
AcDbEntity
  8
TEXT35
100
AcDbText
 10
-36.40520270228751
 20
63.37595499571112
 30
0.0
 40
2.541000000000028
  1
Hochbau Vertrieb GmbH
 41
0.9
  7
TEXT50
100
AcDbText
  0
TEXT
  5
3B3
330
3AF
100
AcDbEntity
  8
DUENN
 62
     3
100
AcDbText
 10
-43.24531934292906
 20
59.96166630511972
 30
0.0
 40
1.815000000000019
  1
24755 Rendsburg, Postfach 320
 41
0.8
  7
TEXT20
100
AcDbText
  0
TEXT
  5
3B4
330
3AF
100
AcDbEntity
  8
DUENN
 62
     3
100
AcDbText
 10
-43.08059910125428
 20
56.34125909498988
 30
0.0
 40
1.815000000000019
  1
Tel.  04331 / 354-410
 41
0.8
  7
TEXT20
100
AcDbText
  0
TEXT
  5
3B5
330
3AF
100
AcDbEntity
  8
DUENN
 62
     3
100
AcDbText
 10
-42.91588105257426
 20
50.08782829046037
 30
0.0
 40
1.815000000000019
  1
www.aco-hochbau.de
 41
0.8
  7
TEXT20
100
AcDbText
  0
MTEXT
  5
3B6
330
3AF
100
AcDbEntity
  8
AM_BOR
100
AcDbMText
 10
-86.25392226265336
 20
61.52484718355282
 30
0.0
 40
4.299999999999999
 41
61.33333333333332
 71
     1
 72
     5
  1
ACO Hochbau
  7
Logo
 73
     1
 44
1.0
1001
ACAD
1000
MTEXTBEGIN
1070
    73
1070
     1
1070
    44
1040
1.0
1070
    74
1070
     0
1000
MTEXTEND
  0
LWPOLYLINE
  5
3B7
330
3AF
100
AcDbEntity
  8
TEXT35
 62
     1
100
AcDbPolyline
 90
        4
 70
     1
 43
0.0
 10
-91.51707949211289
 20
60.479245699383
 42
-3.664441495333134
 10
-91.52447163609725
 20
61.28153110722355
 10
-91.22046098745533
 20
61.45705173705346
 42
3.685001202565794
 10
-91.21310457538459
 20
60.303745699383
  0
LINE
  5
3B8
330
3AF
100
AcDbEntity
  8
TEXT35
 62
     1
100
AcDbLine
 10
-93.59821543196432
 20
65.75700504958013
 30
0.0
 11
-93.59821543196432
 21
59.1396038890781
 31
0.0
  0
LINE
  5
3B9
330
3AF
100
AcDbEntity
  8
TEXT35
 62
     1
100
AcDbLine
 10
-93.59821543196432
 20
59.1396038890781
 30
0.0
 11
-90.80383067753905
 21
59.1396038890781
 31
0.0
  0
LINE
  5
3BA
330
3AF
100
AcDbEntity
  8
TEXT35
 62
     1
100
AcDbLine
 10
-90.80383067753905
 20
59.1396038890781
 30
0.0
 11
-90.80383067753905
 21
65.75700504958013
 31
0.0
  0
LINE
  5
3BB
330
3AF
100
AcDbEntity
  8
TEXT35
 62
     1
100
AcDbLine
 10
-90.80383067753905
 20
65.75700504958013
 30
0.0
 11
-93.59821543196432
 21
65.75700504958013
 31
0.0
  0
LINE
  5
3BC
330
3AF
100
AcDbEntity
  8
TEXT35
 62
     1
100
AcDbLine
 10
-96.83046855051305
 20
65.75700504958013
 30
0.0
 11
-96.83046855051305
 21
59.1396038890781
 31
0.0
  0
LINE
  5
3BD
330
3AF
100
AcDbEntity
  8
TEXT35
 62
     1
100
AcDbLine
 10
-96.83046855051305
 20
59.1396038890781
 30
0.0
 11
-94.03608379608778
 21
59.1396038890781
 31
0.0
  0
LINE
  5
3BE
330
3AF
100
AcDbEntity
  8
TEXT35
 62
     1
100
AcDbLine
 10
-94.03608379608778
 20
59.1396038890781
 30
0.0
 11
-94.03608379608778
 21
65.75700504958013
 31
0.0
  0
LINE
  5
3BF
330
3AF
100
AcDbEntity
  8
TEXT35
 62
     1
100
AcDbLine
 10
-94.03608379608778
 20
65.75700504958013
 30
0.0
 11
-96.83046855051305
 21
65.75700504958013
 31
0.0
  0
LWPOLYLINE
  5
3C0
330
3AF
100
AcDbEntity
  8
TEXT35
 62
     1
100
AcDbPolyline
 90
        7
 70
     1
 43
0.0
 10
-96.22299498341693
 20
59.71801732454685
 42
-0.0323236910300514
 10
-96.20090542018813
 20
60.03459326005406
 10
-94.66564692641265
 20
60.03459326005406
 42
-0.0323236910300515
 10
-94.6435573631839
 20
59.71801732454685
 10
-94.29255346440788
 20
59.71801732454685
 42
0.2369604974400691
 10
-95.43327617330044
 20
61.96509326005394
 42
0.2369604974400691
 10
-96.57399888219295
 20
59.71801732454685
  0
LWPOLYLINE
  5
3C1
330
3AF
100
AcDbEntity
  8
TEXT35
 62
     1
100
AcDbPolyline
 90
        3
 70
     1
 43
0.0
 10
-95.43327617330039
 20
61.51038832883756
 42
-0.1369919174131033
 10
-94.73948639566543
 20
60.38559326005406
 10
-96.12706595093539
 20
60.38559326005406
 42
-0.136991917413112
  0
LINE
  5
3C2
330
3AF
100
AcDbEntity
  8
TEXT35
 62
     1
100
AcDbLine
 10
-90.3659623134156
 20
59.1396038890781
 30
0.0
 11
-90.3659623134156
 21
65.75700504958013
 31
0.0
  0
LINE
  5
3C3
330
3AF
100
AcDbEntity
  8
TEXT35
 62
     1
100
AcDbLine
 10
-87.57157755899033
 20
65.75700504958013
 30
0.0
 11
-87.57157755899033
 21
59.1396038890781
 31
0.0
  0
LINE
  5
3C4
330
3AF
100
AcDbEntity
  8
TEXT35
 62
     1
100
AcDbLine
 10
-87.57157755899033
 20
59.1396038890781
 30
0.0
 11
-90.3659623134156
 21
59.1396038890781
 31
0.0
  0
CIRCLE
  5
3C5
330
3AF
100
AcDbEntity
  8
TEXT35
 62
     1
100
AcDbCircle
 10
-88.96876993620299
 20
60.87412069938301
 30
0.0
 40
1.140749999999999
  0
CIRCLE
  5
3C6
330
3AF
100
AcDbEntity
  8
TEXT35
 62
     1
100
AcDbCircle
 10
-88.96876993620299
 20
60.87412069938301
 30
0.0
 40
0.7897499999999996
  0
LINE
  5
3C7
330
3AF
100
AcDbEntity
  8
TEXT35
 62
     1
100
AcDbLine
 10
-90.3659623134156
 20
65.75700504958013
 30
0.0
 11
-87.57157755899033
 21
65.75700504958013
 31
0.0
  0
ENDBLK
  5
3CB
330
3AF
100
AcDbEntity
  8
0
100
AcDbBlockEnd
  0
BLOCK
  5
40D
330
40C
100
AcDbEntity
  8
0
100
AcDbBlockBegin
  2
SCHNITT
 70
     2
 10
0.0
 20
0.0
 30
0.0
  3
SCHNITT
  1

  0
ATTDEF
  5
40E
330
40C
100
AcDbEntity
  8
TEXT50
100
AcDbText
 10
2.141442237883879
 20
-2.501084761132204
 30
0.0
 40
5.0
  1
A
 41
0.8
  7
TEXT50
100
AcDbAttributeDefinition
  3
Schnittbezeichnung eingeben :
  2
SCHNITTB
 70
     0
  0
LINE
  5
40F
330
40C
100
AcDbEntity
  8
TEXT50
100
AcDbLine
 10
0.0000000000000071
 20
-5.090279711476966
 30
0.0
 11
0.0000000000000071
 21
5.090279711477023
 31
0.0
  0
INSERT
  5
410
330
40C
100
AcDbEntity
  8
SCHRAFF
100
AcDbBlockReference
  2
*X7
 10
161.269152865483
 20
-711.8438534538252
 30
0.0
 50
90.0
  0
LINE
  5
411
330
40C
100
AcDbEntity
  8
SICHTBAR
100
AcDbLine
 10
-7.727406610312748
 20
0.0000000000000568
 30
0.0
 11
-17.72740661031274
 21
0.0000000000000568
 31
0.0
  0
LINE
  5
412
330
40C
100
AcDbEntity
  8
SICHTBAR
100
AcDbLine
 10
-7.727406610312748
 20
-2.070552360820158
 30
0.0
 11
-7.727406610312748
 21
2.070552360820272
 31
0.0
  0
LINE
  5
413
330
40C
100
AcDbEntity
  8
SICHTBAR
100
AcDbLine
 10
-0.0000000000002203
 20
0.0000000000000568
 30
0.0
 11
-7.727406610312748
 21
-2.070552360820158
 31
0.0
  0
LINE
  5
414
330
40C
100
AcDbEntity
  8
SICHTBAR
100
AcDbLine
 10
-0.0000000000002203
 20
0.0000000000000568
 30
0.0
 11
-7.727406610312748
 21
2.070552360820272
 31
0.0
  0
ATTDEF
  5
415
330
40C
100
AcDbEntity
  8
PN
100
AcDbText
 10
0.0
 20
0.0
 30
0.0
 40
5.0
  1
PN000000
 41
0.8
  7
TEXT50
100
AcDbAttributeDefinition
  3

  2
PN
 70
     1
  0
ENDBLK
  5
416
330
40C
100
AcDbEntity
  8
0
100
AcDbBlockEnd
  0
BLOCK
  5
418
330
417
100
AcDbEntity
  8
0
100
AcDbBlockBegin
  2
*X7
 70
     1
 10
0.0
 20
0.0
 30
0.0
  3
*X7
  1

  0
LINE
  5
419
330
417
100
AcDbEntity
  8
0
 62
     0
100
AcDbLine
 10
711.0025356208101
 20
164.4089937636089
 30
0.0
 11
713.3010586859208
 21
166.7075168287198
 31
0.0
  0
LINE
  5
41A
330
417
100
AcDbEntity
  8
0
 62
     0
100
AcDbLine
 10
710.9278209981295
 20
164.6878325315215
 30
0.0
 11
713.4304682084722
 21
167.1904797418643
 31
0.0
  0
LINE
  5
41B
330
417
100
AcDbEntity
  8
0
 62
     0
100
AcDbLine
 10
710.8531063754488
 20
164.9666712994341
 30
0.0
 11
713.5598777310236
 21
167.6734426550089
 31
0.0
  0
LINE
  5
41C
330
417
100
AcDbEntity
  8
0
 62
     0
100
AcDbLine
 10
710.778391752768
 20
165.2455100673467
 30
0.0
 11
713.6892872535748
 21
168.1564055681534
 31
0.0
  0
LINE
  5
41D
330
417
100
AcDbEntity
  8
0
 62
     0
100
AcDbLine
 10
710.7036771300873
 20
165.5243488352593
 30
0.0
 11
713.8186967761261
 21
168.639368481298
 31
0.0
  0
LINE
  5
41E
330
417
100
AcDbEntity
  8
0
 62
     0
100
AcDbLine
 10
710.6289625074067
 20
165.8031876031719
 30
0.0
 11
713.8223343800306
 21
168.9965594757957
 31
0.0
  0
LINE
  5
41F
330
417
100
AcDbEntity
  8
0
 62
     0
100
AcDbLine
 10
710.5542478847261
 20
166.0820263710845
 30
0.0
 11
713.4687809894374
 21
168.9965594757957
 31
0.0
  0
LINE
  5
420
330
417
100
AcDbEntity
  8
0
 62
     0
100
AcDbLine
 10
710.4795332620454
 20
166.3608651389971
 30
0.0
 11
713.1152275988441
 21
168.9965594757957
 31
0.0
  0
LINE
  5
421
330
417
100
AcDbEntity
  8
0
 62
     0
100
AcDbLine
 10
710.4048186393648
 20
166.6397039069097
 30
0.0
 11
712.7616742082509
 21
168.9965594757957
 31
0.0
  0
LINE
  5
422
330
417
100
AcDbEntity
  8
0
 62
     0
100
AcDbLine
 10
710.3301040166841
 20
166.9185426748223
 30
0.0
 11
712.4081208176576
 21
168.9965594757957
 31
0.0
  0
LINE
  5
423
330
417
100
AcDbEntity
  8
0
 62
     0
100
AcDbLine
 10
710.2553893940033
 20
167.1973814427349
 30
0.0
 11
712.0545674270644
 21
168.9965594757957
 31
0.0
  0
LINE
  5
424
330
417
100
AcDbEntity
  8
0
 62
     0
100
AcDbLine
 10
710.1806747713227
 20
167.4762202106475
 30
0.0
 11
711.701014036471
 21
168.9965594757957
 31
0.0
  0
LINE
  5
425
330
417
100
AcDbEntity
  8
0
 62
     0
100
AcDbLine
 10
710.105960148642
 20
167.7550589785601
 30
0.0
 11
711.3474606458777
 21
168.9965594757957
 31
0.0
  0
LINE
  5
426
330
417
100
AcDbEntity
  8
0
 62
     0
100
AcDbLine
 10
710.0312455259613
 20
168.0338977464727
 30
0.0
 11
710.9939072552845
 21
168.9965594757957
 31
0.0
  0
LINE
  5
427
330
417
100
AcDbEntity
  8
0
 62
     0
100
AcDbLine
 10
709.9565309032807
 20
168.3127365143853
 30
0.0
 11
710.6403538646912
 21
168.9965594757957
 31
0.0
  0
LINE
  5
428
330
417
100
AcDbEntity
  8
0
 62
     0
100
AcDbLine
 10
709.8818162806001
 20
168.5915752822979
 30
0.0
 11
710.2868004740978
 21
168.9965594757957
 31
0.0
  0
LINE
  5
429
330
417
100
AcDbEntity
  8
0
 62
     0
100
AcDbLine
 10
709.8071016579194
 20
168.8704140502105
 30
0.0
 11
709.9332470835047
 21
168.9965594757957
 31
0.0
  0
LINE
  5
42A
330
417
100
AcDbEntity
  8
0
 62
     0
100
AcDbLine
 10
711.0772502434907
 20
164.1301549956963
 30
0.0
 11
713.1716491633697
 21
166.2245539155752
 31
0.0
  0
LINE
  5
42B
330
417
100
AcDbEntity
  8
0
 62
     0
100
AcDbLine
 10
711.1519648661714
 20
163.8513162277837
 30
0.0
 11
713.0422396408184
 21
165.7415910024307
 31
0.0
  0
LINE
  5
42C
330
417
100
AcDbEntity
  8
0
 62
     0
100
AcDbLine
 10
711.2266794888521
 20
163.5724774598711
 30
0.0
 11
712.9128301182671
 21
165.2586280892861
 31
0.0
  0
LINE
  5
42D
330
417
100
AcDbEntity
  8
0
 62
     0
100
AcDbLine
 10
711.3013941115327
 20
163.2936386919585
 30
0.0
 11
712.7834205957159
 21
164.7756651761417
 31
0.0
  0
LINE
  5
42E
330
417
100
AcDbEntity
  8
0
 62
     0
100
AcDbLine
 10
711.3761087342135
 20
163.0147999240459
 30
0.0
 11
712.6540110731646
 21
164.2927022629971
 31
0.0
  0
LINE
  5
42F
330
417
100
AcDbEntity
  8
0
 62
     0
100
AcDbLine
 10
711.4508233568941
 20
162.7359611561333
 30
0.0
 11
712.5246015506133
 21
163.8097393498526
 31
0.0
  0
LINE
  5
430
330
417
100
AcDbEntity
  8
0
 62
     0
100
AcDbLine
 10
711.5255379795748
 20
162.4571223882207
 30
0.0
 11
712.3951920280622
 21
163.326776436708
 31
0.0
  0
LINE
  5
431
330
417
100
AcDbEntity
  8
0
 62
     0
100
AcDbLine
 10
711.6002526022555
 20
162.1782836203081
 30
0.0
 11
712.2657825055108
 21
162.8438135235635
 31
0.0
  0
LINE
  5
432
330
417
100
AcDbEntity
  8
0
 62
     0
100
AcDbLine
 10
711.6749672249361
 20
161.8994448523955
 30
0.0
 11
712.1363729829596
 21
162.3608506104189
 31
0.0
  0
LINE
  5
433
330
417
100
AcDbEntity
  8
0
 62
     0
100
AcDbLine
 10
711.7496818476167
 20
161.6206060844829
 30
0.0
 11
712.0069634604083
 21
161.8778876972744
 31
0.0
  0
LINE
  5
434
330
417
100
AcDbEntity
  8
0
 62
     0
100
AcDbLine
 10
711.8243964702976
 20
161.3417673165703
 30
0.0
 11
711.8775539378571
 21
161.3949247841298
 31
0.0
  0
ENDBLK
  5
435
330
417
100
AcDbEntity
  8
0
100
AcDbBlockEnd
  0
BLOCK
  5
437
330
436
100
AcDbEntity
  8
0
100
AcDbBlockBegin
  2
*X8
 70
     1
 10
0.0
 20
0.0
 30
0.0
  3
*X8
  1

  0
LINE
  5
438
330
436
100
AcDbEntity
  8
0
 62
     0
100
AcDbLine
 10
-163.9689588183904
 20
328.1773608874467
 30
0.0
 11
-162.7402196649543
 21
329.4061000408827
 31
0.0
  0
LINE
  5
439
330
436
100
AcDbEntity
  8
0
 62
     0
100
AcDbLine
 10
-163.9902196649543
 20
329.5703136032558
 30
0.0
 11
-162.7402196649543
 21
330.8203136032558
 31
0.0
  0
LINE
  5
43A
330
436
100
AcDbEntity
  8
0
 62
     0
100
AcDbLine
 10
-163.9902196649543
 20
330.9845271656289
 30
0.0
 11
-162.7402196649543
 21
332.2345271656289
 31
0.0
  0
LINE
  5
43B
330
436
100
AcDbEntity
  8
0
 62
     0
100
AcDbLine
 10
-163.9902196649543
 20
332.398740728002
 30
0.0
 11
-162.7402196649543
 21
333.6487407280019
 31
0.0
  0
LINE
  5
43C
330
436
100
AcDbEntity
  8
0
 62
     0
100
AcDbLine
 10
-163.9902196649543
 20
333.8129542903751
 30
0.0
 11
-162.7402196649543
 21
335.062954290375
 31
0.0
  0
LINE
  5
43D
330
436
100
AcDbEntity
  8
0
 62
     0
100
AcDbLine
 10
-161.6741575173821
 20
336.1290164379473
 30
0.0
 11
-161.4902196649543
 21
336.3129542903751
 31
0.0
  0
LINE
  5
43E
330
436
100
AcDbEntity
  8
0
 62
     0
100
AcDbLine
 10
-163.9902196649543
 20
335.2271678527482
 30
0.0
 11
-161.4902196649543
 21
337.7271678527482
 31
0.0
  0
LINE
  5
43F
330
436
100
AcDbEntity
  8
0
 62
     0
100
AcDbLine
 10
-163.9902196649543
 20
336.6413814151213
 30
0.0
 11
-161.4902196649543
 21
339.1413814151213
 31
0.0
  0
LINE
  5
440
330
436
100
AcDbEntity
  8
0
 62
     0
100
AcDbLine
 10
-163.9902196649543
 20
338.0555949774944
 30
0.0
 11
-161.4902196649543
 21
340.5555949774944
 31
0.0
  0
LINE
  5
441
330
436
100
AcDbEntity
  8
0
 62
     0
100
AcDbLine
 10
-163.9902196649543
 20
339.4698085398675
 30
0.0
 11
-161.4902196649543
 21
341.9698085398675
 31
0.0
  0
LINE
  5
442
330
436
100
AcDbEntity
  8
0
 62
     0
100
AcDbLine
 10
-163.9902196649543
 20
340.8840221022406
 30
0.0
 11
-161.4902196649543
 21
343.3840221022406
 31
0.0
  0
LINE
  5
443
330
436
100
AcDbEntity
  8
0
 62
     0
100
AcDbLine
 10
-163.9902196649543
 20
342.2982356646137
 30
0.0
 11
-161.4902196649543
 21
344.7982356646137
 31
0.0
  0
LINE
  5
444
330
436
100
AcDbEntity
  8
0
 62
     0
100
AcDbLine
 10
-163.9902196649543
 20
343.7124492269867
 30
0.0
 11
-161.4902196649543
 21
346.2124492269867
 31
0.0
  0
LINE
  5
445
330
436
100
AcDbEntity
  8
0
 62
     0
100
AcDbLine
 10
-163.9902196649543
 20
345.1266627893598
 30
0.0
 11
-161.6415995074903
 21
347.4752829468238
 31
0.0
  0
LINE
  5
446
330
436
100
AcDbEntity
  8
0
 62
     0
100
AcDbLine
 10
-163.9902196649543
 20
346.5408763517329
 30
0.0
 11
-162.4389324308083
 21
348.0921635858789
 31
0.0
  0
LINE
  5
447
330
436
100
AcDbEntity
  8
0
 62
     0
100
AcDbLine
 10
-163.4531799308267
 20
327.2789262126372
 30
0.0
 11
-162.4618575448262
 21
328.2702485986377
 31
0.0
  0
LINE
  5
448
330
436
100
AcDbEntity
  8
0
 62
     0
100
AcDbLine
 10
-162.3888761431436
 20
326.9290164379473
 30
0.0
 11
-161.1888761431435
 21
328.1290164379473
 31
0.0
  0
LINE
  5
449
330
436
100
AcDbEntity
  8
0
 62
     0
100
AcDbLine
 10
-160.9746625807705
 20
326.9290164379473
 30
0.0
 11
-159.7746625807704
 21
328.1290164379473
 31
0.0
  0
LINE
  5
44A
330
436
100
AcDbEntity
  8
0
 62
     0
100
AcDbLine
 10
-159.5604490183974
 20
326.9290164379473
 30
0.0
 11
-158.3604490183973
 21
328.1290164379473
 31
0.0
  0
LINE
  5
44B
330
436
100
AcDbEntity
  8
0
 62
     0
100
AcDbLine
 10
-158.1462354560243
 20
326.9290164379473
 30
0.0
 11
-156.9462354560242
 21
328.1290164379473
 31
0.0
  0
LINE
  5
44C
330
436
100
AcDbEntity
  8
0
 62
     0
100
AcDbLine
 10
-156.7320218936512
 20
326.9290164379473
 30
0.0
 11
-155.5320218936511
 21
328.1290164379473
 31
0.0
  0
LINE
  5
44D
330
436
100
AcDbEntity
  8
0
 62
     0
100
AcDbLine
 10
-155.3178083312781
 20
326.9290164379473
 30
0.0
 11
-154.1178083312781
 21
328.1290164379473
 31
0.0
  0
LINE
  5
44E
330
436
100
AcDbEntity
  8
0
 62
     0
100
AcDbLine
 10
-153.903594768905
 20
326.9290164379473
 30
0.0
 11
-152.7035947689049
 21
328.1290164379473
 31
0.0
  0
LINE
  5
44F
330
436
100
AcDbEntity
  8
0
 62
     0
100
AcDbLine
 10
-152.4893812065319
 20
326.9290164379473
 30
0.0
 11
-151.2893812065318
 21
328.1290164379473
 31
0.0
  0
LINE
  5
450
330
436
100
AcDbEntity
  8
0
 62
     0
100
AcDbLine
 10
-151.0751676441588
 20
326.9290164379473
 30
0.0
 11
-149.8751676441588
 21
328.1290164379473
 31
0.0
  0
LINE
  5
451
330
436
100
AcDbEntity
  8
0
 62
     0
100
AcDbLine
 10
-149.6609540817857
 20
326.9290164379473
 30
0.0
 11
-148.4609540817857
 21
328.1290164379473
 31
0.0
  0
LINE
  5
452
330
436
100
AcDbEntity
  8
0
 62
     0
100
AcDbLine
 10
-148.2467405194126
 20
326.9290164379473
 30
0.0
 11
-147.4902196649543
 21
327.6855372924056
 31
0.0
  0
ENDBLK
  5
453
330
436
100
AcDbEntity
  8
0
100
AcDbBlockEnd
  0
BLOCK
  5
455
330
454
100
AcDbEntity
  8
0
100
AcDbBlockBegin
  2
*D9
 70
     1
 10
0.0
 20
0.0
 30
0.0
  3
*D9
  1

  0
LINE
  5
456
330
454
100
AcDbEntity
  8
AM_5
 62
     0
370
    -2
100
AcDbLine
 10
440.4553779423395
 20
1309.980336257014
 30
0.0
 11
440.4553779423395
 21
1373.105336257014
 31
0.0
  0
LINE
  5
457
330
454
100
AcDbEntity
  8
AM_5
 62
     0
370
    -2
100
AcDbLine
 10
1190.455377942339
 20
1309.980336257014
 30
0.0
 11
1190.455377942339
 21
1373.105336257014
 31
0.0
  0
LINE
  5
458
330
454
100
AcDbEntity
  8
AM_5
 62
     0
370
    -2
100
AcDbLine
 10
452.9553779423395
 20
1366.855336257013
 30
0.0
 11
1177.955377942339
 21
1366.855336257014
 31
0.0
  0
SOLID
  5
459
330
454
100
AcDbEntity
  8
AM_5
 62
     0
100
AcDbTrace
 10
452.9553779423395
 20
1368.938669590347
 30
0.0
 11
452.9553779423395
 21
1364.77200292368
 31
0.0
 12
440.4553779423395
 22
1366.855336257013
 32
0.0
 13
440.4553779423395
 23
1366.855336257013
 33
0.0
  0
SOLID
  5
45A
330
454
100
AcDbEntity
  8
AM_5
 62
     0
100
AcDbTrace
 10
1177.955377942339
 20
1368.938669590348
 30
0.0
 11
1177.955377942339
 21
1364.772002923681
 31
0.0
 12
1190.455377942339
 22
1366.855336257014
 32
0.0
 13
1190.455377942339
 23
1366.855336257014
 33
0.0
  0
MTEXT
  5
45B
330
454
100
AcDbEntity
  8
AM_5
 62
     0
100
AcDbMText
 10
815.4553779423393
 20
1376.230336257014
 30
0.0
 40
12.5
 41
0.0
 71
     5
 72
     1
  1
750
 73
     1
 44
1.0
1001
ACAD
1000
MTEXTBEGIN
1070
    73
1070
     1
1070
    44
1040
1.0
1070
    74
1070
     0
1000
MTEXTEND
  0
POINT
  5
45C
330
454
100
AcDbEntity
  8
DEFPOINTS
 62
     0
100
AcDbPoint
 10
440.4553779423395
 20
1306.855336257014
 30
0.0
  0
POINT
  5
45D
330
454
100
AcDbEntity
  8
DEFPOINTS
 62
     0
100
AcDbPoint
 10
1190.455377942339
 20
1306.855336257014
 30
0.0
  0
POINT
  5
45E
330
454
100
AcDbEntity
  8
DEFPOINTS
 62
     0
100
AcDbPoint
 10
1190.455377942339
 20
1366.855336257014
 30
0.0
  0
ENDBLK
  5
45F
330
454
100
AcDbEntity
  8
0
100
AcDbBlockEnd
  0
BLOCK
  5
461
330
460
100
AcDbEntity
  8
0
100
AcDbBlockBegin
  2
*D10
 70
     1
 10
0.0
 20
0.0
 30
0.0
  3
*D10
  1

  0
LINE
  5
462
330
460
100
AcDbEntity
  8
AM_5
 62
     0
370
    -2
100
AcDbLine
 10
1410.548951550537
 20
537.0362506432697
 30
0.0
 11
1473.673951550537
 21
537.0362506432697
 31
0.0
  0
LINE
  5
463
330
460
100
AcDbEntity
  8
AM_5
 62
     0
370
    -2
100
AcDbLine
 10
1410.548951550537
 20
1037.03625064327
 30
0.0
 11
1473.673951550537
 21
1037.03625064327
 31
0.0
  0
LINE
  5
464
330
460
100
AcDbEntity
  8
AM_5
 62
     0
370
    -2
100
AcDbLine
 10
1467.423951550537
 20
549.5362506432697
 30
0.0
 11
1467.423951550537
 21
1024.53625064327
 31
0.0
  0
SOLID
  5
465
330
460
100
AcDbEntity
  8
AM_5
 62
     0
100
AcDbTrace
 10
1465.340618217204
 20
549.5362506432697
 30
0.0
 11
1469.50728488387
 21
549.5362506432697
 31
0.0
 12
1467.423951550537
 22
537.0362506432697
 32
0.0
 13
1467.423951550537
 23
537.0362506432697
 33
0.0
  0
SOLID
  5
466
330
460
100
AcDbEntity
  8
AM_5
 62
     0
100
AcDbTrace
 10
1465.340618217204
 20
1024.53625064327
 30
0.0
 11
1469.50728488387
 21
1024.53625064327
 31
0.0
 12
1467.423951550537
 22
1037.03625064327
 32
0.0
 13
1467.423951550537
 23
1037.03625064327
 33
0.0
  0
MTEXT
  5
467
330
460
100
AcDbEntity
  8
AM_5
 62
     0
100
AcDbMText
 10
1458.048951550537
 20
787.0362506432699
 30
0.0
 40
12.5
 41
0.0
 71
     5
 72
     1
  1
500
 11
0.0000000000000001
 21
1.0
 31
0.0
 73
     1
 44
1.0
1001
ACAD
1000
MTEXTBEGIN
1070
    73
1070
     1
1070
    44
1040
1.0
1070
    74
1070
     0
1000
MTEXTEND
  0
POINT
  5
468
330
460
100
AcDbEntity
  8
DEFPOINTS
 62
     0
100
AcDbPoint
 10
1407.423951550537
 20
537.0362506432697
 30
0.0
  0
POINT
  5
469
330
460
100
AcDbEntity
  8
DEFPOINTS
 62
     0
100
AcDbPoint
 10
1407.423951550537
 20
1037.03625064327
 30
0.0
  0
POINT
  5
46A
330
460
100
AcDbEntity
  8
DEFPOINTS
 62
     0
100
AcDbPoint
 10
1467.423951550537
 20
1037.03625064327
 30
0.0
  0
ENDBLK
  5
46B
330
460
100
AcDbEntity
  8
0
100
AcDbBlockEnd
  0
BLOCK
  5
46D
330
46C
100
AcDbEntity
  8
0
100
AcDbBlockBegin
  2
*D11
 70
     1
 10
0.0
 20
0.0
 30
0.0
  3
*D11
  1

  0
LINE
  5
46E
330
46C
100
AcDbEntity
  8
AM_5
 62
     0
370
    -2
100
AcDbLine
 10
1185.580377942339
 20
1226.855336257014
 30
0.0
 11
1256.705377942339
 21
1226.855336257014
 31
0.0
  0
LINE
  5
46F
330
46C
100
AcDbEntity
  8
AM_5
 62
     0
370
    -2
100
AcDbLine
 10
1193.580377942339
 20
1306.855336257014
 30
0.0
 11
1256.705377942339
 21
1306.855336257014
 31
0.0
  0
LINE
  5
470
330
46C
100
AcDbEntity
  8
AM_5
 62
     0
370
    -2
100
AcDbLine
 10
1250.455377942339
 20
1239.355336257014
 30
0.0
 11
1250.455377942339
 21
1294.355336257014
 31
0.0
  0
SOLID
  5
471
330
46C
100
AcDbEntity
  8
AM_5
 62
     0
100
AcDbTrace
 10
1248.372044609006
 20
1239.355336257014
 30
0.0
 11
1252.538711275673
 21
1239.355336257014
 31
0.0
 12
1250.455377942339
 22
1226.855336257014
 32
0.0
 13
1250.455377942339
 23
1226.855336257014
 33
0.0
  0
SOLID
  5
472
330
46C
100
AcDbEntity
  8
AM_5
 62
     0
100
AcDbTrace
 10
1248.372044609006
 20
1294.355336257014
 30
0.0
 11
1252.538711275673
 21
1294.355336257014
 31
0.0
 12
1250.455377942339
 22
1306.855336257014
 32
0.0
 13
1250.455377942339
 23
1306.855336257014
 33
0.0
  0
MTEXT
  5
473
330
46C
100
AcDbEntity
  8
AM_5
 62
     0
100
AcDbMText
 10
1241.080377942339
 20
1266.855336257014
 30
0.0
 40
12.5
 41
0.0
 71
     5
 72
     1
  1
80
 11
0.0000000000000001
 21
1.0
 31
0.0
 73
     1
 44
1.0
1001
ACAD
1000
MTEXTBEGIN
1070
    73
1070
     1
1070
    44
1040
1.0
1070
    74
1070
     0
1000
MTEXTEND
  0
POINT
  5
474
330
46C
100
AcDbEntity
  8
DEFPOINTS
 62
     0
100
AcDbPoint
 10
1182.455377942339
 20
1226.855336257014
 30
0.0
  0
POINT
  5
475
330
46C
100
AcDbEntity
  8
DEFPOINTS
 62
     0
100
AcDbPoint
 10
1190.455377942339
 20
1306.855336257014
 30
0.0
  0
POINT
  5
476
330
46C
100
AcDbEntity
  8
DEFPOINTS
 62
     0
100
AcDbPoint
 10
1250.455377942339
 20
1306.855336257014
 30
0.0
  0
ENDBLK
  5
477
330
46C
100
AcDbEntity
  8
0
100
AcDbBlockEnd
  0
BLOCK
  5
71B
330
71A
100
AcDbEntity
  8
0
100
AcDbBlockBegin
  2
*D13
 70
     1
 10
0.0
 20
0.0
 30
0.0
  3
*D13
  1

  0
LINE
  5
73E
330
71A
100
AcDbEntity
  8
AM_5
 62
     0
370
    -2
100
AcDbLine
 10
1602.955377942339
 20
529.9803362570139
 30
0.0
 11
1602.955377942339
 21
593.1053362570144
 31
0.0
  0
LINE
  5
73F
330
71A
100
AcDbEntity
  8
AM_5
 62
     0
370
    -2
100
AcDbLine
 10
2352.95537794234
 20
529.9803362570139
 30
0.0
 11
2352.95537794234
 21
593.1053362570144
 31
0.0
  0
LINE
  5
740
330
71A
100
AcDbEntity
  8
AM_5
 62
     0
370
    -2
100
AcDbLine
 10
1615.455377942339
 20
586.8553362570144
 30
0.0
 11
2340.45537794234
 21
586.8553362570144
 31
0.0
  0
SOLID
  5
741
330
71A
100
AcDbEntity
  8
AM_5
 62
     0
100
AcDbTrace
 10
1615.455377942339
 20
588.9386695903477
 30
0.0
 11
1615.455377942339
 21
584.772002923681
 31
0.0
 12
1602.955377942339
 22
586.8553362570144
 32
0.0
 13
1602.955377942339
 23
586.8553362570144
 33
0.0
  0
SOLID
  5
742
330
71A
100
AcDbEntity
  8
AM_5
 62
     0
100
AcDbTrace
 10
2340.45537794234
 20
588.9386695903477
 30
0.0
 11
2340.45537794234
 21
584.772002923681
 31
0.0
 12
2352.95537794234
 22
586.8553362570144
 32
0.0
 13
2352.95537794234
 23
586.8553362570144
 33
0.0
  0
MTEXT
  5
743
330
71A
100
AcDbEntity
  8
AM_5
 62
     0
100
AcDbMText
 10
1977.955377942339
 20
596.2303362570144
 30
0.0
 40
12.5
 41
0.0
 71
     5
 72
     1
  1
750
 73
     1
 44
1.0
1001
ACAD
1000
MTEXTBEGIN
1070
    73
1070
     1
1070
    44
1040
1.0
1070
    74
1070
     0
1000
MTEXTEND
  0
POINT
  5
744
330
71A
100
AcDbEntity
  8
DEFPOINTS
 62
     0
100
AcDbPoint
 10
1602.955377942339
 20
526.8553362570139
 30
0.0
  0
POINT
  5
745
330
71A
100
AcDbEntity
  8
DEFPOINTS
 62
     0
100
AcDbPoint
 10
2352.95537794234
 20
526.8553362570139
 30
0.0
  0
POINT
  5
746
330
71A
100
AcDbEntity
  8
DEFPOINTS
 62
     0
100
AcDbPoint
 10
2352.95537794234
 20
586.8553362570144
 30
0.0
  0
ENDBLK
  5
71C
330
71A
100
AcDbEntity
  8
0
100
AcDbBlockEnd
  0
BLOCK
  5
727
330
726
100
AcDbEntity
  8
0
100
AcDbBlockBegin
  2
*D14
 70
     1
 10
0.0
 20
0.0
 30
0.0
  3
*D14
  1

  0
LINE
  5
747
330
726
100
AcDbEntity
  8
AM_5
 62
     0
370
    -2
100
AcDbLine
 10
2573.048951550537
 20
-242.9637493567302
 30
0.0
 11
2636.173951550537
 21
-242.9637493567302
 31
0.0
  0
LINE
  5
748
330
726
100
AcDbEntity
  8
AM_5
 62
     0
370
    -2
100
AcDbLine
 10
2573.048951550537
 20
257.0362506432698
 30
0.0
 11
2636.173951550537
 21
257.0362506432698
 31
0.0
  0
LINE
  5
749
330
726
100
AcDbEntity
  8
AM_5
 62
     0
370
    -2
100
AcDbLine
 10
2629.923951550537
 20
-230.4637493567302
 30
0.0
 11
2629.923951550537
 21
244.5362506432698
 31
0.0
  0
SOLID
  5
74A
330
726
100
AcDbEntity
  8
AM_5
 62
     0
100
AcDbTrace
 10
2627.840618217204
 20
-230.4637493567302
 30
0.0
 11
2632.007284883871
 21
-230.4637493567302
 31
0.0
 12
2629.923951550537
 22
-242.9637493567302
 32
0.0
 13
2629.923951550537
 23
-242.9637493567302
 33
0.0
  0
SOLID
  5
74B
330
726
100
AcDbEntity
  8
AM_5
 62
     0
100
AcDbTrace
 10
2627.840618217204
 20
244.5362506432698
 30
0.0
 11
2632.007284883871
 21
244.5362506432698
 31
0.0
 12
2629.923951550537
 22
257.0362506432698
 32
0.0
 13
2629.923951550537
 23
257.0362506432698
 33
0.0
  0
MTEXT
  5
74C
330
726
100
AcDbEntity
  8
AM_5
 62
     0
100
AcDbMText
 10
2620.548951550537
 20
7.036250643270204
 30
0.0
 40
12.5
 41
0.0
 71
     5
 72
     1
  1
500
 11
0.0000000000000001
 21
1.0
 31
0.0
 73
     1
 44
1.0
1001
ACAD
1000
MTEXTBEGIN
1070
    73
1070
     1
1070
    44
1040
1.0
1070
    74
1070
     0
1000
MTEXTEND
  0
POINT
  5
74D
330
726
100
AcDbEntity
  8
DEFPOINTS
 62
     0
100
AcDbPoint
 10
2569.923951550537
 20
-242.9637493567302
 30
0.0
  0
POINT
  5
74E
330
726
100
AcDbEntity
  8
DEFPOINTS
 62
     0
100
AcDbPoint
 10
2569.923951550537
 20
257.0362506432698
 30
0.0
  0
POINT
  5
74F
330
726
100
AcDbEntity
  8
DEFPOINTS
 62
     0
100
AcDbPoint
 10
2629.923951550537
 20
257.0362506432698
 30
0.0
  0
ENDBLK
  5
728
330
726
100
AcDbEntity
  8
0
100
AcDbBlockEnd
  0
BLOCK
  5
733
330
732
100
AcDbEntity
  8
0
100
AcDbBlockBegin
  2
*D15
 70
     1
 10
0.0
 20
0.0
 30
0.0
  3
*D15
  1

  0
LINE
  5
750
330
732
100
AcDbEntity
  8
AM_5
 62
     0
370
    -2
100
AcDbLine
 10
2348.08037794234
 20
446.855336257014
 30
0.0
 11
2419.20537794234
 21
446.855336257014
 31
0.0
  0
LINE
  5
751
330
732
100
AcDbEntity
  8
AM_5
 62
     0
370
    -2
100
AcDbLine
 10
2356.08037794234
 20
526.8553362570139
 30
0.0
 11
2419.20537794234
 21
526.8553362570139
 31
0.0
  0
LINE
  5
752
330
732
100
AcDbEntity
  8
AM_5
 62
     0
370
    -2
100
AcDbLine
 10
2412.95537794234
 20
459.355336257014
 30
0.0
 11
2412.95537794234
 21
514.3553362570139
 31
0.0
  0
SOLID
  5
753
330
732
100
AcDbEntity
  8
AM_5
 62
     0
100
AcDbTrace
 10
2410.872044609006
 20
459.355336257014
 30
0.0
 11
2415.038711275673
 21
459.355336257014
 31
0.0
 12
2412.95537794234
 22
446.855336257014
 32
0.0
 13
2412.95537794234
 23
446.855336257014
 33
0.0
  0
SOLID
  5
754
330
732
100
AcDbEntity
  8
AM_5
 62
     0
100
AcDbTrace
 10
2410.872044609006
 20
514.3553362570139
 30
0.0
 11
2415.038711275673
 21
514.3553362570139
 31
0.0
 12
2412.95537794234
 22
526.8553362570139
 32
0.0
 13
2412.95537794234
 23
526.8553362570139
 33
0.0
  0
MTEXT
  5
755
330
732
100
AcDbEntity
  8
AM_5
 62
     0
100
AcDbMText
 10
2403.58037794234
 20
486.8553362570144
 30
0.0
 40
12.5
 41
0.0
 71
     5
 72
     1
  1
80
 11
0.0000000000000001
 21
1.0
 31
0.0
 73
     1
 44
1.0
1001
ACAD
1000
MTEXTBEGIN
1070
    73
1070
     1
1070
    44
1040
1.0
1070
    74
1070
     0
1000
MTEXTEND
  0
POINT
  5
756
330
732
100
AcDbEntity
  8
DEFPOINTS
 62
     0
100
AcDbPoint
 10
2344.95537794234
 20
446.855336257014
 30
0.0
  0
POINT
  5
757
330
732
100
AcDbEntity
  8
DEFPOINTS
 62
     0
100
AcDbPoint
 10
2352.95537794234
 20
526.8553362570139
 30
0.0
  0
POINT
  5
758
330
732
100
AcDbEntity
  8
DEFPOINTS
 62
     0
100
AcDbPoint
 10
2412.95537794234
 20
526.8553362570139
 30
0.0
  0
ENDBLK
  5
734
330
732
100
AcDbEntity
  8
0
100
AcDbBlockEnd
  0
BLOCK
  5
77B
330
75A
100
AcDbEntity
  8
0
100
AcDbBlockBegin
  2
SF_WEB
 70
     2
 10
0.0
 20
0.0
 30
0.0
  3
SF_WEB
  1

  0
LINE
  5
75B
330
75A
100
AcDbEntity
  8
KOPF
100
AcDbLine
 10
-193.9886905055561
 20
5.022162579921541
 30
0.0
 11
0.0
 21
5.022162579921541
 31
0.0
  0
TEXT
  5
75C
330
75A
100
AcDbEntity
  8
DUENN-18
100
AcDbText
 10
-192.0829336381698
 20
23.15023657498273
 30
0.0
 40
2.5
  1
Benennung:
 41
0.8
 51
7.0
  7
TEXT25
100
AcDbText
  0
TEXT
  5
75D
330
75A
100
AcDbEntity
  8
DUENN-18
100
AcDbText
 10
-192.1695108139387
 20
1.437878966649009
 30
0.0
 40
2.0
  1
Technische Änderungen vorbehalten
 41
0.8
 51
7.0
  7
TEXT20
100
AcDbText
  0
ATTDEF
  5
75E
330
75A
100
AcDbEntity
  8
TEXT35
100
AcDbText
 10
-191.9714423512649
 20
18.8130430867416
 30
0.0
 40
3.0
  1

 41
0.8
  7
TEXT35
100
AcDbAttributeDefinition
  3
Z-Titel 1
  2
F2
 70
     0
  0
ATTDEF
  5
75F
330
75A
100
AcDbEntity
  8
TEXT35
100
AcDbText
 10
-191.9714423512649
 20
14.39368482524133
 30
0.0
 40
3.0
  1

 41
0.8
  7
TEXT35
100
AcDbAttributeDefinition
  3
Z-Titel 2
  2
F3
 70
     0
  0
LINE
  5
760
330
75A
100
AcDbEntity
  8
KOPF
100
AcDbLine
 10
-109.9886905055561
 20
16.02216257992154
 30
0.0
 11
0.0
 21
16.02216257992154
 31
0.0
  0
ATTDEF
  5
761
330
75A
100
AcDbEntity
  8
TEXT25
100
AcDbText
 10
-63.06983600358859
 20
1.781467465784857
 30
0.0
 40
2.5
  1

 41
0.8
  7
TEXT25
100
AcDbAttributeDefinition
  3
Ersatz für:
  2
F11
 70
     0
  0
TEXT
  5
762
330
75A
100
AcDbEntity
  8
DUENN-18
100
AcDbText
 10
-107.9673835276751
 20
1.69820715403307
 30
0.0
 40
2.0
  1
Schutzvermerk gemäß DIN 34
 41
0.8
 51
7.0
  7
TEXT20
100
AcDbText
  0
LINE
  5
763
330
75A
100
AcDbEntity
  8
KOPF
100
AcDbLine
 10
-109.9713905511177
 20
12.02216257992154
 30
0.0
 11
-77.09123305389153
 21
12.02216257992154
 31
0.0
  0
LINE
  5
764
330
75A
100
AcDbEntity
  8
KOPF
100
AcDbLine
 10
-109.9713905511177
 20
16.02216257992154
 30
0.0
 11
-77.09123305389153
 21
16.02216257992154
 31
0.0
  0
LINE
  5
765
330
75A
100
AcDbEntity
  8
KOPF
100
AcDbLine
 10
-109.9713905511177
 20
20.02216257992154
 30
0.0
 11
-77.09123305389153
 21
20.02216257992154
 31
0.0
  0
LINE
  5
766
330
75A
100
AcDbEntity
  8
KOPF
100
AcDbLine
 10
-109.9713905511177
 20
24.02216257992154
 30
0.0
 11
-77.09123305389153
 21
24.02216257992154
 31
0.0
  0
LINE
  5
767
330
75A
100
AcDbEntity
  8
KOPF
100
AcDbLine
 10
-109.9713905511177
 20
12.02216257992154
 30
0.0
 11
-77.09123305389153
 21
12.02216257992154
 31
0.0
  0
LINE
  5
768
330
75A
100
AcDbEntity
  8
KOPF
100
AcDbLine
 10
-101.8710354371606
 20
28.02216257992154
 30
0.0
 11
-101.8710354371606
 21
12.02216257992154
 31
0.0
  0
LINE
  5
769
330
75A
100
AcDbEntity
  8
KOPF
100
AcDbLine
 10
-109.9713905511177
 20
28.02216257992154
 30
0.0
 11
-109.9713905511177
 21
0.0221625799215417
 31
0.0
  0
TEXT
  5
76A
330
75A
100
AcDbEntity
  8
DUENN-18
100
AcDbText
 10
-108.2635772077551
 20
13.05048799795736
 30
0.0
 40
2.0
  1
Norm
 41
0.8
 51
7.0
  7
TEXT20
100
AcDbText
  0
TEXT
  5
76B
330
75A
100
AcDbEntity
  8
DUENN-18
100
AcDbText
 10
-108.4293235138851
 20
16.96566749864223
 30
0.0
 40
2.0
  1
Upd.
 41
0.8
 51
7.0
  7
TEXT20
100
AcDbText
  0
ATTDEF
  5
76C
330
75A
100
AcDbEntity
  8
TEXT25
100
AcDbText
 10
-100.8191920456801
 20
16.53924652792928
 30
0.0
 40
2.0
  1

 41
0.8
  7
TEXT20
100
AcDbAttributeDefinition
  3
Geprüft am:
  2
F53
 70
     0
  0
TEXT
  5
76D
330
75A
100
AcDbEntity
  8
DUENN-18
100
AcDbText
 10
-108.2635772077551
 20
21.20142943840892
 30
0.0
 40
2.0
  1
Gez.
 41
0.8
 51
7.0
  7
TEXT20
100
AcDbText
  0
TEXT
  5
76E
330
75A
100
AcDbEntity
  8
DUENN-18
100
AcDbText
 10
-100.147774905559
 20
25.05665087416753
 30
0.0
 40
2.0
  1
Datum
 41
0.8
 51
7.0
  7
TEXT20
100
AcDbText
  0
ATTDEF
  5
76F
330
75A
100
AcDbEntity
  8
TEXT25
100
AcDbText
 10
-100.7859728332864
 20
20.81504702466451
 30
0.0
 40
2.0
  1

 41
0.8
  7
TEXT20
100
AcDbAttributeDefinition
  3
Gezeichnet am:
  2
F9
 70
     0
  0
LINE
  5
770
330
75A
100
AcDbEntity
  8
KOPF
100
AcDbLine
 10
-77.09123305389153
 20
28.02216257992154
 30
0.0
 11
-77.09123305389153
 21
0.0221625799215417
 31
0.0
  0
LINE
  5
771
330
75A
100
AcDbEntity
  8
KOPF
100
AcDbLine
 10
-89.70165699365567
 20
28.02216257992154
 30
0.0
 11
-89.70165699365566
 21
12.02216257992154
 31
0.0
  0
ATTDEF
  5
772
330
75A
100
AcDbEntity
  8
TEXT25
100
AcDbText
 10
-87.91540463705729
 20
16.76358637823622
 30
0.0
 40
2.0
  1

 41
0.8
  7
TEXT20
100
AcDbAttributeDefinition
  3
Geprüft von:
  2
F52
 70
     0
  0
ATTDEF
  5
773
330
75A
100
AcDbEntity
  8
TEXT35
100
AcDbText
 10
-192.0734817400741
 20
7.519221610381208
 30
0.0
 40
3.5
  1

 41
0.8
  7
TEXT35
100
AcDbAttributeDefinition
  3
Z-Titel 3
  2
F13
 70
     0
  0
TEXT
  5
774
330
75A
100
AcDbEntity
  8
DUENN-18
100
AcDbText
 10
-74.65810094475236
 20
1.69820715403307
 30
0.0
 40
2.0
  1
Ers. für:
 41
0.8
 51
7.0
  7
TEXT20
100
AcDbText
  0
TEXT
  5
775
330
75A
100
AcDbEntity
  8
DUENN-18
100
AcDbText
 10
-86.45722415661589
 20
25.05665087416753
 30
0.0
 40
2.0
  1
Name
 41
0.8
 51
7.0
  7
TEXT20
100
AcDbText
  0
ATTDEF
  5
776
330
75A
100
AcDbEntity
  8
TEXT25
100
AcDbText
 10
-87.90464072124001
 20
20.73211066935191
 30
0.0
 40
2.0
  1

 41
0.8
  7
TEXT20
100
AcDbAttributeDefinition
  3
Gezeichnet von
  2
F8
 70
     0
  0
ATTDEF
  5
777
330
75A
100
AcDbEntity
  8
TEXT35
100
AcDbText
 10
-72.30594474950294
 20
7.558829379641395
 30
0.0
 40
3.5
  1

 41
0.8
  7
TEXT35
100
AcDbAttributeDefinition
  3
Zeichnungsnummer
  2
F1
 70
     0
  0
TEXT
  5
778
330
75A
100
AcDbEntity
  8
DUENN-18
100
AcDbText
 10
-72.38710846653927
 20
12.92069882222665
 30
0.0
 40
2.0
  1
Zeichnung-Nr.
 41
0.8
 51
7.0
  7
TEXT20
100
AcDbText
  0
LINE
  5
779
330
75A
100
AcDbEntity
  8
KOPF
100
AcDbLine
 10
-193.9886905055561
 20
28.02216257992154
 30
0.0
 11
-193.9886905055561
 21
0.0221625799215417
 31
0.0
  0
LWPOLYLINE
  5
77A
330
75A
100
AcDbEntity
  8
KOPF
100
AcDbPolyline
 90
        2
 70
     0
 43
0.5
 10
-193.9886905055561
 20
28.02216257992154
 10
0.0
 20
28.02216257992154
  0
ENDBLK
  5
77C
330
75A
100
AcDbEntity
  8
0
100
AcDbBlockEnd
  0
BLOCK
  5
78D
330
78C
100
AcDbEntity
  8
0
100
AcDbBlockBegin
  2
*X17
 70
     1
 10
0.0
 20
0.0
 30
0.0
  3
*X17
  1

  0
LINE
  5
78E
330
78C
100
AcDbEntity
  8
0
 62
     0
100
AcDbLine
 10
711.0025356208101
 20
164.4089937636089
 30
0.0
 11
713.3010586859208
 21
166.7075168287198
 31
0.0
  0
LINE
  5
78F
330
78C
100
AcDbEntity
  8
0
 62
     0
100
AcDbLine
 10
710.9278209981295
 20
164.6878325315215
 30
0.0
 11
713.4304682084722
 21
167.1904797418643
 31
0.0
  0
LINE
  5
790
330
78C
100
AcDbEntity
  8
0
 62
     0
100
AcDbLine
 10
710.8531063754488
 20
164.9666712994341
 30
0.0
 11
713.5598777310236
 21
167.6734426550089
 31
0.0
  0
LINE
  5
791
330
78C
100
AcDbEntity
  8
0
 62
     0
100
AcDbLine
 10
710.778391752768
 20
165.2455100673467
 30
0.0
 11
713.6892872535748
 21
168.1564055681534
 31
0.0
  0
LINE
  5
792
330
78C
100
AcDbEntity
  8
0
 62
     0
100
AcDbLine
 10
710.7036771300873
 20
165.5243488352593
 30
0.0
 11
713.8186967761261
 21
168.639368481298
 31
0.0
  0
LINE
  5
793
330
78C
100
AcDbEntity
  8
0
 62
     0
100
AcDbLine
 10
710.6289625074067
 20
165.8031876031719
 30
0.0
 11
713.8223343800306
 21
168.9965594757957
 31
0.0
  0
LINE
  5
794
330
78C
100
AcDbEntity
  8
0
 62
     0
100
AcDbLine
 10
710.5542478847261
 20
166.0820263710845
 30
0.0
 11
713.4687809894374
 21
168.9965594757957
 31
0.0
  0
LINE
  5
795
330
78C
100
AcDbEntity
  8
0
 62
     0
100
AcDbLine
 10
710.4795332620454
 20
166.3608651389971
 30
0.0
 11
713.1152275988441
 21
168.9965594757957
 31
0.0
  0
LINE
  5
796
330
78C
100
AcDbEntity
  8
0
 62
     0
100
AcDbLine
 10
710.4048186393648
 20
166.6397039069097
 30
0.0
 11
712.7616742082509
 21
168.9965594757957
 31
0.0
  0
LINE
  5
797
330
78C
100
AcDbEntity
  8
0
 62
     0
100
AcDbLine
 10
710.3301040166841
 20
166.9185426748223
 30
0.0
 11
712.4081208176576
 21
168.9965594757957
 31
0.0
  0
LINE
  5
798
330
78C
100
AcDbEntity
  8
0
 62
     0
100
AcDbLine
 10
710.2553893940033
 20
167.1973814427349
 30
0.0
 11
712.0545674270644
 21
168.9965594757957
 31
0.0
  0
LINE
  5
799
330
78C
100
AcDbEntity
  8
0
 62
     0
100
AcDbLine
 10
710.1806747713227
 20
167.4762202106475
 30
0.0
 11
711.701014036471
 21
168.9965594757957
 31
0.0
  0
LINE
  5
79A
330
78C
100
AcDbEntity
  8
0
 62
     0
100
AcDbLine
 10
710.105960148642
 20
167.7550589785601
 30
0.0
 11
711.3474606458777
 21
168.9965594757957
 31
0.0
  0
LINE
  5
79B
330
78C
100
AcDbEntity
  8
0
 62
     0
100
AcDbLine
 10
710.0312455259613
 20
168.0338977464727
 30
0.0
 11
710.9939072552845
 21
168.9965594757957
 31
0.0
  0
LINE
  5
79C
330
78C
100
AcDbEntity
  8
0
 62
     0
100
AcDbLine
 10
709.9565309032807
 20
168.3127365143853
 30
0.0
 11
710.6403538646912
 21
168.9965594757957
 31
0.0
  0
LINE
  5
79D
330
78C
100
AcDbEntity
  8
0
 62
     0
100
AcDbLine
 10
709.8818162806001
 20
168.5915752822979
 30
0.0
 11
710.2868004740978
 21
168.9965594757957
 31
0.0
  0
LINE
  5
79E
330
78C
100
AcDbEntity
  8
0
 62
     0
100
AcDbLine
 10
709.8071016579194
 20
168.8704140502105
 30
0.0
 11
709.9332470835047
 21
168.9965594757957
 31
0.0
  0
LINE
  5
79F
330
78C
100
AcDbEntity
  8
0
 62
     0
100
AcDbLine
 10
711.0772502434907
 20
164.1301549956963
 30
0.0
 11
713.1716491633697
 21
166.2245539155752
 31
0.0
  0
LINE
  5
7A0
330
78C
100
AcDbEntity
  8
0
 62
     0
100
AcDbLine
 10
711.1519648661714
 20
163.8513162277837
 30
0.0
 11
713.0422396408184
 21
165.7415910024307
 31
0.0
  0
LINE
  5
7A1
330
78C
100
AcDbEntity
  8
0
 62
     0
100
AcDbLine
 10
711.2266794888521
 20
163.5724774598711
 30
0.0
 11
712.9128301182671
 21
165.2586280892861
 31
0.0
  0
LINE
  5
7A2
330
78C
100
AcDbEntity
  8
0
 62
     0
100
AcDbLine
 10
711.3013941115327
 20
163.2936386919585
 30
0.0
 11
712.7834205957159
 21
164.7756651761417
 31
0.0
  0
LINE
  5
7A3
330
78C
100
AcDbEntity
  8
0
 62
     0
100
AcDbLine
 10
711.3761087342135
 20
163.0147999240459
 30
0.0
 11
712.6540110731646
 21
164.2927022629971
 31
0.0
  0
LINE
  5
7A4
330
78C
100
AcDbEntity
  8
0
 62
     0
100
AcDbLine
 10
711.4508233568941
 20
162.7359611561333
 30
0.0
 11
712.5246015506133
 21
163.8097393498526
 31
0.0
  0
LINE
  5
7A5
330
78C
100
AcDbEntity
  8
0
 62
     0
100
AcDbLine
 10
711.5255379795748
 20
162.4571223882207
 30
0.0
 11
712.3951920280622
 21
163.326776436708
 31
0.0
  0
LINE
  5
7A6
330
78C
100
AcDbEntity
  8
0
 62
     0
100
AcDbLine
 10
711.6002526022555
 20
162.1782836203081
 30
0.0
 11
712.2657825055108
 21
162.8438135235635
 31
0.0
  0
LINE
  5
7A7
330
78C
100
AcDbEntity
  8
0
 62
     0
100
AcDbLine
 10
711.6749672249361
 20
161.8994448523955
 30
0.0
 11
712.1363729829596
 21
162.3608506104189
 31
0.0
  0
LINE
  5
7A8
330
78C
100
AcDbEntity
  8
0
 62
     0
100
AcDbLine
 10
711.7496818476167
 20
161.6206060844829
 30
0.0
 11
712.0069634604083
 21
161.8778876972744
 31
0.0
  0
LINE
  5
7A9
330
78C
100
AcDbEntity
  8
0
 62
     0
100
AcDbLine
 10
711.8243964702976
 20
161.3417673165703
 30
0.0
 11
711.8775539378571
 21
161.3949247841298
 31
0.0
  0
ENDBLK
  5
7AA
330
78C
100
AcDbEntity
  8
0
100
AcDbBlockEnd
  0
BLOCK
  5
7AC
330
7AB
100
AcDbEntity
  8
0
100
AcDbBlockBegin
  2
*X18
 70
     1
 10
0.0
 20
0.0
 30
0.0
  3
*X18
  1

  0
LINE
  5
7AD
330
7AB
100
AcDbEntity
  8
0
 62
     0
100
AcDbLine
 10
-163.9689588183904
 20
328.1773608874467
 30
0.0
 11
-162.7402196649543
 21
329.4061000408827
 31
0.0
  0
LINE
  5
7AE
330
7AB
100
AcDbEntity
  8
0
 62
     0
100
AcDbLine
 10
-163.9902196649543
 20
329.5703136032558
 30
0.0
 11
-162.7402196649543
 21
330.8203136032558
 31
0.0
  0
LINE
  5
7AF
330
7AB
100
AcDbEntity
  8
0
 62
     0
100
AcDbLine
 10
-163.9902196649543
 20
330.9845271656289
 30
0.0
 11
-162.7402196649543
 21
332.2345271656289
 31
0.0
  0
LINE
  5
7B0
330
7AB
100
AcDbEntity
  8
0
 62
     0
100
AcDbLine
 10
-163.9902196649543
 20
332.398740728002
 30
0.0
 11
-162.7402196649543
 21
333.6487407280019
 31
0.0
  0
LINE
  5
7B1
330
7AB
100
AcDbEntity
  8
0
 62
     0
100
AcDbLine
 10
-163.9902196649543
 20
333.8129542903751
 30
0.0
 11
-162.7402196649543
 21
335.062954290375
 31
0.0
  0
LINE
  5
7B2
330
7AB
100
AcDbEntity
  8
0
 62
     0
100
AcDbLine
 10
-161.6741575173821
 20
336.1290164379473
 30
0.0
 11
-161.4902196649543
 21
336.3129542903751
 31
0.0
  0
LINE
  5
7B3
330
7AB
100
AcDbEntity
  8
0
 62
     0
100
AcDbLine
 10
-163.9902196649543
 20
335.2271678527482
 30
0.0
 11
-161.4902196649543
 21
337.7271678527482
 31
0.0
  0
LINE
  5
7B4
330
7AB
100
AcDbEntity
  8
0
 62
     0
100
AcDbLine
 10
-163.9902196649543
 20
336.6413814151213
 30
0.0
 11
-161.4902196649543
 21
339.1413814151213
 31
0.0
  0
LINE
  5
7B5
330
7AB
100
AcDbEntity
  8
0
 62
     0
100
AcDbLine
 10
-163.9902196649543
 20
338.0555949774944
 30
0.0
 11
-161.4902196649543
 21
340.5555949774944
 31
0.0
  0
LINE
  5
7B6
330
7AB
100
AcDbEntity
  8
0
 62
     0
100
AcDbLine
 10
-163.9902196649543
 20
339.4698085398675
 30
0.0
 11
-161.4902196649543
 21
341.9698085398675
 31
0.0
  0
LINE
  5
7B7
330
7AB
100
AcDbEntity
  8
0
 62
     0
100
AcDbLine
 10
-163.9902196649543
 20
340.8840221022406
 30
0.0
 11
-161.4902196649543
 21
343.3840221022406
 31
0.0
  0
LINE
  5
7B8
330
7AB
100
AcDbEntity
  8
0
 62
     0
100
AcDbLine
 10
-163.9902196649543
 20
342.2982356646137
 30
0.0
 11
-161.4902196649543
 21
344.7982356646137
 31
0.0
  0
LINE
  5
7B9
330
7AB
100
AcDbEntity
  8
0
 62
     0
100
AcDbLine
 10
-163.9902196649543
 20
343.7124492269867
 30
0.0
 11
-161.4902196649543
 21
346.2124492269867
 31
0.0
  0
LINE
  5
7BA
330
7AB
100
AcDbEntity
  8
0
 62
     0
100
AcDbLine
 10
-163.9902196649543
 20
345.1266627893598
 30
0.0
 11
-161.6415995074903
 21
347.4752829468238
 31
0.0
  0
LINE
  5
7BB
330
7AB
100
AcDbEntity
  8
0
 62
     0
100
AcDbLine
 10
-163.9902196649543
 20
346.5408763517329
 30
0.0
 11
-162.4389324308083
 21
348.0921635858789
 31
0.0
  0
LINE
  5
7BC
330
7AB
100
AcDbEntity
  8
0
 62
     0
100
AcDbLine
 10
-163.4531799308267
 20
327.2789262126372
 30
0.0
 11
-162.4618575448262
 21
328.2702485986377
 31
0.0
  0
LINE
  5
7BD
330
7AB
100
AcDbEntity
  8
0
 62
     0
100
AcDbLine
 10
-162.3888761431436
 20
326.9290164379473
 30
0.0
 11
-161.1888761431435
 21
328.1290164379473
 31
0.0
  0
LINE
  5
7BE
330
7AB
100
AcDbEntity
  8
0
 62
     0
100
AcDbLine
 10
-160.9746625807705
 20
326.9290164379473
 30
0.0
 11
-159.7746625807704
 21
328.1290164379473
 31
0.0
  0
LINE
  5
7BF
330
7AB
100
AcDbEntity
  8
0
 62
     0
100
AcDbLine
 10
-159.5604490183974
 20
326.9290164379473
 30
0.0
 11
-158.3604490183973
 21
328.1290164379473
 31
0.0
  0
LINE
  5
7C0
330
7AB
100
AcDbEntity
  8
0
 62
     0
100
AcDbLine
 10
-158.1462354560243
 20
326.9290164379473
 30
0.0
 11
-156.9462354560242
 21
328.1290164379473
 31
0.0
  0
LINE
  5
7C1
330
7AB
100
AcDbEntity
  8
0
 62
     0
100
AcDbLine
 10
-156.7320218936512
 20
326.9290164379473
 30
0.0
 11
-155.5320218936511
 21
328.1290164379473
 31
0.0
  0
LINE
  5
7C2
330
7AB
100
AcDbEntity
  8
0
 62
     0
100
AcDbLine
 10
-155.3178083312781
 20
326.9290164379473
 30
0.0
 11
-154.1178083312781
 21
328.1290164379473
 31
0.0
  0
LINE
  5
7C3
330
7AB
100
AcDbEntity
  8
0
 62
     0
100
AcDbLine
 10
-153.903594768905
 20
326.9290164379473
 30
0.0
 11
-152.7035947689049
 21
328.1290164379473
 31
0.0
  0
LINE
  5
7C4
330
7AB
100
AcDbEntity
  8
0
 62
     0
100
AcDbLine
 10
-152.4893812065319
 20
326.9290164379473
 30
0.0
 11
-151.2893812065318
 21
328.1290164379473
 31
0.0
  0
LINE
  5
7C5
330
7AB
100
AcDbEntity
  8
0
 62
     0
100
AcDbLine
 10
-151.0751676441588
 20
326.9290164379473
 30
0.0
 11
-149.8751676441588
 21
328.1290164379473
 31
0.0
  0
LINE
  5
7C6
330
7AB
100
AcDbEntity
  8
0
 62
     0
100
AcDbLine
 10
-149.6609540817857
 20
326.9290164379473
 30
0.0
 11
-148.4609540817857
 21
328.1290164379473
 31
0.0
  0
LINE
  5
7C7
330
7AB
100
AcDbEntity
  8
0
 62
     0
100
AcDbLine
 10
-148.2467405194126
 20
326.9290164379473
 30
0.0
 11
-147.4902196649543
 21
327.6855372924056
 31
0.0
  0
ENDBLK
  5
7C8
330
7AB
100
AcDbEntity
  8
0
100
AcDbBlockEnd
  0
BLOCK
  5
7CA
330
7C9
100
AcDbEntity
  8
0
100
AcDbBlockBegin
  2
*D19
 70
     1
 10
0.0
 20
0.0
 30
0.0
  3
*D19
  1

  0
LINE
  5
7CB
330
7C9
100
AcDbEntity
  8
AM_5
 62
     0
370
    -2
100
AcDbLine
 10
440.4553779423395
 20
1309.980336257014
 30
0.0
 11
440.4553779423395
 21
1373.105336257014
 31
0.0
  0
LINE
  5
7CC
330
7C9
100
AcDbEntity
  8
AM_5
 62
     0
370
    -2
100
AcDbLine
 10
1190.455377942339
 20
1309.980336257014
 30
0.0
 11
1190.455377942339
 21
1373.105336257014
 31
0.0
  0
LINE
  5
7CD
330
7C9
100
AcDbEntity
  8
AM_5
 62
     0
370
    -2
100
AcDbLine
 10
452.9553779423395
 20
1366.855336257013
 30
0.0
 11
1177.955377942339
 21
1366.855336257014
 31
0.0
  0
SOLID
  5
7CE
330
7C9
100
AcDbEntity
  8
AM_5
 62
     0
100
AcDbTrace
 10
452.9553779423395
 20
1368.938669590347
 30
0.0
 11
452.9553779423395
 21
1364.77200292368
 31
0.0
 12
440.4553779423395
 22
1366.855336257013
 32
0.0
 13
440.4553779423395
 23
1366.855336257013
 33
0.0
  0
SOLID
  5
7CF
330
7C9
100
AcDbEntity
  8
AM_5
 62
     0
100
AcDbTrace
 10
1177.955377942339
 20
1368.938669590348
 30
0.0
 11
1177.955377942339
 21
1364.772002923681
 31
0.0
 12
1190.455377942339
 22
1366.855336257014
 32
0.0
 13
1190.455377942339
 23
1366.855336257014
 33
0.0
  0
MTEXT
  5
7D0
330
7C9
100
AcDbEntity
  8
AM_5
 62
     0
100
AcDbMText
 10
815.4553779423393
 20
1376.230336257014
 30
0.0
 40
12.5
 41
0.0
 71
     5
 72
     1
  1
750
 73
     1
 44
1.0
1001
ACAD
1000
MTEXTBEGIN
1070
    73
1070
     1
1070
    44
1040
1.0
1070
    74
1070
     0
1000
MTEXTEND
  0
POINT
  5
7D1
330
7C9
100
AcDbEntity
  8
DEFPOINTS
 62
     0
100
AcDbPoint
 10
440.4553779423395
 20
1306.855336257014
 30
0.0
  0
POINT
  5
7D2
330
7C9
100
AcDbEntity
  8
DEFPOINTS
 62
     0
100
AcDbPoint
 10
1190.455377942339
 20
1306.855336257014
 30
0.0
  0
POINT
  5
7D3
330
7C9
100
AcDbEntity
  8
DEFPOINTS
 62
     0
100
AcDbPoint
 10
1190.455377942339
 20
1366.855336257014
 30
0.0
  0
ENDBLK
  5
7D4
330
7C9
100
AcDbEntity
  8
0
100
AcDbBlockEnd
  0
BLOCK
  5
7D6
330
7D5
100
AcDbEntity
  8
0
100
AcDbBlockBegin
  2
*D20
 70
     1
 10
0.0
 20
0.0
 30
0.0
  3
*D20
  1

  0
LINE
  5
7D7
330
7D5
100
AcDbEntity
  8
AM_5
 62
     0
370
    -2
100
AcDbLine
 10
1410.548951550537
 20
537.0362506432697
 30
0.0
 11
1473.673951550537
 21
537.0362506432697
 31
0.0
  0
LINE
  5
7D8
330
7D5
100
AcDbEntity
  8
AM_5
 62
     0
370
    -2
100
AcDbLine
 10
1410.548951550537
 20
1037.03625064327
 30
0.0
 11
1473.673951550537
 21
1037.03625064327
 31
0.0
  0
LINE
  5
7D9
330
7D5
100
AcDbEntity
  8
AM_5
 62
     0
370
    -2
100
AcDbLine
 10
1467.423951550537
 20
549.5362506432697
 30
0.0
 11
1467.423951550537
 21
1024.53625064327
 31
0.0
  0
SOLID
  5
7DA
330
7D5
100
AcDbEntity
  8
AM_5
 62
     0
100
AcDbTrace
 10
1465.340618217204
 20
549.5362506432697
 30
0.0
 11
1469.50728488387
 21
549.5362506432697
 31
0.0
 12
1467.423951550537
 22
537.0362506432697
 32
0.0
 13
1467.423951550537
 23
537.0362506432697
 33
0.0
  0
SOLID
  5
7DB
330
7D5
100
AcDbEntity
  8
AM_5
 62
     0
100
AcDbTrace
 10
1465.340618217204
 20
1024.53625064327
 30
0.0
 11
1469.50728488387
 21
1024.53625064327
 31
0.0
 12
1467.423951550537
 22
1037.03625064327
 32
0.0
 13
1467.423951550537
 23
1037.03625064327
 33
0.0
  0
MTEXT
  5
7DC
330
7D5
100
AcDbEntity
  8
AM_5
 62
     0
100
AcDbMText
 10
1458.048951550537
 20
787.0362506432699
 30
0.0
 40
12.5
 41
0.0
 71
     5
 72
     1
  1
500
 11
0.0000000000000001
 21
1.0
 31
0.0
 73
     1
 44
1.0
1001
ACAD
1000
MTEXTBEGIN
1070
    73
1070
     1
1070
    44
1040
1.0
1070
    74
1070
     0
1000
MTEXTEND
  0
POINT
  5
7DD
330
7D5
100
AcDbEntity
  8
DEFPOINTS
 62
     0
100
AcDbPoint
 10
1407.423951550537
 20
537.0362506432697
 30
0.0
  0
POINT
  5
7DE
330
7D5
100
AcDbEntity
  8
DEFPOINTS
 62
     0
100
AcDbPoint
 10
1407.423951550537
 20
1037.03625064327
 30
0.0
  0
POINT
  5
7DF
330
7D5
100
AcDbEntity
  8
DEFPOINTS
 62
     0
100
AcDbPoint
 10
1467.423951550537
 20
1037.03625064327
 30
0.0
  0
ENDBLK
  5
7E0
330
7D5
100
AcDbEntity
  8
0
100
AcDbBlockEnd
  0
BLOCK
  5
7E2
330
7E1
100
AcDbEntity
  8
0
100
AcDbBlockBegin
  2
*D21
 70
     1
 10
0.0
 20
0.0
 30
0.0
  3
*D21
  1

  0
LINE
  5
7E3
330
7E1
100
AcDbEntity
  8
AM_5
 62
     0
370
    -2
100
AcDbLine
 10
1185.580377942339
 20
1226.855336257014
 30
0.0
 11
1256.705377942339
 21
1226.855336257014
 31
0.0
  0
LINE
  5
7E4
330
7E1
100
AcDbEntity
  8
AM_5
 62
     0
370
    -2
100
AcDbLine
 10
1193.580377942339
 20
1306.855336257014
 30
0.0
 11
1256.705377942339
 21
1306.855336257014
 31
0.0
  0
LINE
  5
7E5
330
7E1
100
AcDbEntity
  8
AM_5
 62
     0
370
    -2
100
AcDbLine
 10
1250.455377942339
 20
1239.355336257014
 30
0.0
 11
1250.455377942339
 21
1294.355336257014
 31
0.0
  0
SOLID
  5
7E6
330
7E1
100
AcDbEntity
  8
AM_5
 62
     0
100
AcDbTrace
 10
1248.372044609006
 20
1239.355336257014
 30
0.0
 11
1252.538711275673
 21
1239.355336257014
 31
0.0
 12
1250.455377942339
 22
1226.855336257014
 32
0.0
 13
1250.455377942339
 23
1226.855336257014
 33
0.0
  0
SOLID
  5
7E7
330
7E1
100
AcDbEntity
  8
AM_5
 62
     0
100
AcDbTrace
 10
1248.372044609006
 20
1294.355336257014
 30
0.0
 11
1252.538711275673
 21
1294.355336257014
 31
0.0
 12
1250.455377942339
 22
1306.855336257014
 32
0.0
 13
1250.455377942339
 23
1306.855336257014
 33
0.0
  0
MTEXT
  5
7E8
330
7E1
100
AcDbEntity
  8
AM_5
 62
     0
100
AcDbMText
 10
1241.080377942339
 20
1266.855336257014
 30
0.0
 40
12.5
 41
0.0
 71
     5
 72
     1
  1
80
 11
0.0000000000000001
 21
1.0
 31
0.0
 73
     1
 44
1.0
1001
ACAD
1000
MTEXTBEGIN
1070
    73
1070
     1
1070
    44
1040
1.0
1070
    74
1070
     0
1000
MTEXTEND
  0
POINT
  5
7E9
330
7E1
100
AcDbEntity
  8
DEFPOINTS
 62
     0
100
AcDbPoint
 10
1182.455377942339
 20
1226.855336257014
 30
0.0
  0
POINT
  5
7EA
330
7E1
100
AcDbEntity
  8
DEFPOINTS
 62
     0
100
AcDbPoint
 10
1190.455377942339
 20
1306.855336257014
 30
0.0
  0
POINT
  5
7EB
330
7E1
100
AcDbEntity
  8
DEFPOINTS
 62
     0
100
AcDbPoint
 10
1250.455377942339
 20
1306.855336257014
 30
0.0
  0
ENDBLK
  5
7EC
330
7E1
100
AcDbEntity
  8
0
100
AcDbBlockEnd
  0
BLOCK
  5
A66
330
A65
100
AcDbEntity
  8
0
100
AcDbBlockBegin
  2
*D23
 70
     1
 10
0.0
 20
0.0
 30
0.0
  3
*D23
  1

  0
LINE
  5
A89
330
A65
100
AcDbEntity
  8
AM_5
 62
     0
370
    -2
100
AcDbLine
 10
440.4553779423395
 20
1309.980336257014
 30
0.0
 11
440.4553779423395
 21
1373.105336257014
 31
0.0
  0
LINE
  5
A8A
330
A65
100
AcDbEntity
  8
AM_5
 62
     0
370
    -2
100
AcDbLine
 10
1190.455377942339
 20
1309.980336257014
 30
0.0
 11
1190.455377942339
 21
1373.105336257014
 31
0.0
  0
LINE
  5
A8B
330
A65
100
AcDbEntity
  8
AM_5
 62
     0
370
    -2
100
AcDbLine
 10
452.9553779423395
 20
1366.855336257014
 30
0.0
 11
1177.955377942339
 21
1366.855336257014
 31
0.0
  0
SOLID
  5
A8C
330
A65
100
AcDbEntity
  8
AM_5
 62
     0
100
AcDbTrace
 10
452.9553779423395
 20
1368.938669590348
 30
0.0
 11
452.9553779423395
 21
1364.772002923681
 31
0.0
 12
440.4553779423395
 22
1366.855336257014
 32
0.0
 13
440.4553779423395
 23
1366.855336257014
 33
0.0
  0
SOLID
  5
A8D
330
A65
100
AcDbEntity
  8
AM_5
 62
     0
100
AcDbTrace
 10
1177.955377942339
 20
1368.938669590348
 30
0.0
 11
1177.955377942339
 21
1364.772002923681
 31
0.0
 12
1190.455377942339
 22
1366.855336257014
 32
0.0
 13
1190.455377942339
 23
1366.855336257014
 33
0.0
  0
MTEXT
  5
A8E
330
A65
100
AcDbEntity
  8
AM_5
 62
     0
100
AcDbMText
 10
815.4553779423395
 20
1376.230336257014
 30
0.0
 40
12.5
 41
0.0
 71
     5
 72
     1
  1
750
 73
     1
 44
1.0
1001
ACAD
1000
MTEXTBEGIN
1070
    73
1070
     1
1070
    44
1040
1.0
1070
    74
1070
     0
1000
MTEXTEND
  0
POINT
  5
A8F
330
A65
100
AcDbEntity
  8
DEFPOINTS
 62
     0
100
AcDbPoint
 10
440.4553779423395
 20
1306.855336257014
 30
0.0
  0
POINT
  5
A90
330
A65
100
AcDbEntity
  8
DEFPOINTS
 62
     0
100
AcDbPoint
 10
1190.455377942339
 20
1306.855336257014
 30
0.0
  0
POINT
  5
A91
330
A65
100
AcDbEntity
  8
DEFPOINTS
 62
     0
100
AcDbPoint
 10
1190.455377942339
 20
1366.855336257014
 30
0.0
  0
ENDBLK
  5
A67
330
A65
100
AcDbEntity
  8
0
100
AcDbBlockEnd
  0
BLOCK
  5
A72
330
A71
100
AcDbEntity
  8
0
100
AcDbBlockBegin
  2
*D24
 70
     1
 10
0.0
 20
0.0
 30
0.0
  3
*D24
  1

  0
LINE
  5
A92
330
A71
100
AcDbEntity
  8
AM_5
 62
     0
370
    -2
100
AcDbLine
 10
1410.548951550537
 20
537.0362506432697
 30
0.0
 11
1473.673951550537
 21
537.0362506432697
 31
0.0
  0
LINE
  5
A93
330
A71
100
AcDbEntity
  8
AM_5
 62
     0
370
    -2
100
AcDbLine
 10
1410.548951550537
 20
1037.03625064327
 30
0.0
 11
1473.673951550537
 21
1037.03625064327
 31
0.0
  0
LINE
  5
A94
330
A71
100
AcDbEntity
  8
AM_5
 62
     0
370
    -2
100
AcDbLine
 10
1467.423951550537
 20
549.5362506432697
 30
0.0
 11
1467.423951550537
 21
1024.53625064327
 31
0.0
  0
SOLID
  5
A95
330
A71
100
AcDbEntity
  8
AM_5
 62
     0
100
AcDbTrace
 10
1465.340618217204
 20
549.5362506432697
 30
0.0
 11
1469.50728488387
 21
549.5362506432697
 31
0.0
 12
1467.423951550537
 22
537.0362506432697
 32
0.0
 13
1467.423951550537
 23
537.0362506432697
 33
0.0
  0
SOLID
  5
A96
330
A71
100
AcDbEntity
  8
AM_5
 62
     0
100
AcDbTrace
 10
1465.340618217204
 20
1024.53625064327
 30
0.0
 11
1469.50728488387
 21
1024.53625064327
 31
0.0
 12
1467.423951550537
 22
1037.03625064327
 32
0.0
 13
1467.423951550537
 23
1037.03625064327
 33
0.0
  0
MTEXT
  5
A97
330
A71
100
AcDbEntity
  8
AM_5
 62
     0
100
AcDbMText
 10
1458.048951550537
 20
787.0362506432699
 30
0.0
 40
12.5
 41
0.0
 71
     5
 72
     1
  1
500
 11
0.0000000000000001
 21
1.0
 31
0.0
 73
     1
 44
1.0
1001
ACAD
1000
MTEXTBEGIN
1070
    73
1070
     1
1070
    44
1040
1.0
1070
    74
1070
     0
1000
MTEXTEND
  0
POINT
  5
A98
330
A71
100
AcDbEntity
  8
DEFPOINTS
 62
     0
100
AcDbPoint
 10
1407.423951550537
 20
537.0362506432697
 30
0.0
  0
POINT
  5
A99
330
A71
100
AcDbEntity
  8
DEFPOINTS
 62
     0
100
AcDbPoint
 10
1407.423951550537
 20
1037.03625064327
 30
0.0
  0
POINT
  5
A9A
330
A71
100
AcDbEntity
  8
DEFPOINTS
 62
     0
100
AcDbPoint
 10
1467.423951550537
 20
1037.03625064327
 30
0.0
  0
ENDBLK
  5
A73
330
A71
100
AcDbEntity
  8
0
100
AcDbBlockEnd
  0
BLOCK
  5
A7E
330
A7D
100
AcDbEntity
  8
0
100
AcDbBlockBegin
  2
*D25
 70
     1
 10
0.0
 20
0.0
 30
0.0
  3
*D25
  1

  0
LINE
  5
A9B
330
A7D
100
AcDbEntity
  8
AM_5
 62
     0
370
    -2
100
AcDbLine
 10
1185.580377942339
 20
1226.855336257014
 30
0.0
 11
1256.705377942339
 21
1226.855336257014
 31
0.0
  0
LINE
  5
A9C
330
A7D
100
AcDbEntity
  8
AM_5
 62
     0
370
    -2
100
AcDbLine
 10
1193.580377942339
 20
1306.855336257014
 30
0.0
 11
1256.705377942339
 21
1306.855336257014
 31
0.0
  0
LINE
  5
A9D
330
A7D
100
AcDbEntity
  8
AM_5
 62
     0
370
    -2
100
AcDbLine
 10
1250.455377942339
 20
1239.355336257014
 30
0.0
 11
1250.455377942339
 21
1294.355336257014
 31
0.0
  0
SOLID
  5
A9E
330
A7D
100
AcDbEntity
  8
AM_5
 62
     0
100
AcDbTrace
 10
1248.372044609006
 20
1239.355336257014
 30
0.0
 11
1252.538711275673
 21
1239.355336257014
 31
0.0
 12
1250.455377942339
 22
1226.855336257014
 32
0.0
 13
1250.455377942339
 23
1226.855336257014
 33
0.0
  0
SOLID
  5
A9F
330
A7D
100
AcDbEntity
  8
AM_5
 62
     0
100
AcDbTrace
 10
1248.372044609006
 20
1294.355336257014
 30
0.0
 11
1252.538711275673
 21
1294.355336257014
 31
0.0
 12
1250.455377942339
 22
1306.855336257014
 32
0.0
 13
1250.455377942339
 23
1306.855336257014
 33
0.0
  0
MTEXT
  5
AA0
330
A7D
100
AcDbEntity
  8
AM_5
 62
     0
100
AcDbMText
 10
1241.080377942339
 20
1266.855336257014
 30
0.0
 40
12.5
 41
0.0
 71
     5
 72
     1
  1
80
 11
0.0000000000000001
 21
1.0
 31
0.0
 73
     1
 44
1.0
1001
ACAD
1000
MTEXTBEGIN
1070
    73
1070
     1
1070
    44
1040
1.0
1070
    74
1070
     0
1000
MTEXTEND
  0
POINT
  5
AA1
330
A7D
100
AcDbEntity
  8
DEFPOINTS
 62
     0
100
AcDbPoint
 10
1182.455377942339
 20
1226.855336257014
 30
0.0
  0
POINT
  5
AA2
330
A7D
100
AcDbEntity
  8
DEFPOINTS
 62
     0
100
AcDbPoint
 10
1190.455377942339
 20
1306.855336257014
 30
0.0
  0
POINT
  5
AA3
330
A7D
100
AcDbEntity
  8
DEFPOINTS
 62
     0
100
AcDbPoint
 10
1250.455377942339
 20
1306.855336257014
 30
0.0
  0
ENDBLK
  5
A7F
330
A7D
100
AcDbEntity
  8
0
100
AcDbBlockEnd
  0
BLOCK
  5
B8A
330
B6F
100
AcDbEntity
  8
0
100
AcDbBlockBegin
  2
logo_hochweb
 70
     0
 10
0.0
 20
0.0
 30
0.0
  3
logo_hochweb
  1

  0
TEXT
  5
B70
330
B6F
100
AcDbEntity
  8
TEXT35
100
AcDbText
 10
-33.7885904884331
 20
25.21056262870972
 30
0.0
 40
1.524600000000017
  1
ACO  
  7
TEXT50
100
AcDbText
  0
TEXT
  5
B71
330
B6F
100
AcDbEntity
  8
DUENN
 62
     3
100
AcDbText
 10
-33.24248055512827
 20
19.01866261332906
 30
0.0
 40
1.089000000000011
  1
FAX 04331/ 354-360
 41
0.8
  7
TEXT20
100
AcDbText
  0
TEXT
  5
B72
330
B6F
100
AcDbEntity
  8
TEXT35
100
AcDbText
 10
-29.33607354495621
 20
25.21424775669368
 30
0.0
 40
1.524600000000017
  1
Hochbau Vertrieb GmbH
 41
0.9
  7
TEXT50
100
AcDbText
  0
TEXT
  5
B73
330
B6F
100
AcDbEntity
  8
DUENN
 62
     3
100
AcDbText
 10
-33.44014352934114
 20
23.16567454233883
 30
0.0
 40
1.089000000000011
  1
24755 Rendsburg, Postfach 320
 41
0.8
  7
TEXT20
100
AcDbText
  0
TEXT
  5
B74
330
B6F
100
AcDbEntity
  8
DUENN
 62
     3
100
AcDbText
 10
-33.34131138433626
 20
20.99343021626093
 30
0.0
 40
1.089000000000011
  1
Tel.  04331 / 354-410
 41
0.8
  7
TEXT20
100
AcDbText
  0
TEXT
  5
B75
330
B6F
100
AcDbEntity
  8
DUENN
 62
     3
100
AcDbText
 10
-33.24248055512827
 20
17.24137173354322
 30
0.0
 40
1.089000000000011
  1
www.aco-hochbau.de
 41
0.8
  7
TEXT20
100
AcDbText
  0
MTEXT
  5
B76
330
B6F
100
AcDbEntity
  8
AM_BOR
100
AcDbMText
 10
-59.2453052811757
 20
24.1035830693987
 30
0.0
 40
2.579999999999999
 41
36.8
 71
     1
 72
     5
  1
ACO Hochbau
  7
Logo
 73
     1
 44
1.0
1001
ACAD
1000
MTEXTBEGIN
1070
    73
1070
     1
1070
    44
1040
1.0
1070
    74
1070
     0
1000
MTEXTEND
  0
LWPOLYLINE
  5
B77
330
B6F
100
AcDbEntity
  8
TEXT35
 62
     1
100
AcDbPolyline
 90
        4
 70
     1
 43
0.0
 10
-62.40319961885141
 20
23.4762221788968
 42
-3.664441495333134
 10
-62.40763490524203
 20
23.95759342360113
 10
-62.2252285160569
 20
24.06290580149908
 42
3.685001202565794
 10
-62.22081466881444
 20
23.3709221788968
  0
LINE
  5
B78
330
B6F
100
AcDbEntity
  8
TEXT35
 62
     1
100
AcDbLine
 10
-63.65188118276229
 20
26.64287778901508
 30
0.0
 11
-63.65188118276229
 21
22.67243709271387
 31
0.0
  0
LINE
  5
B79
330
B6F
100
AcDbEntity
  8
TEXT35
 62
     1
100
AcDbLine
 10
-63.65188118276229
 20
22.67243709271387
 30
0.0
 11
-61.97525033010713
 21
22.67243709271387
 31
0.0
  0
LINE
  5
B7A
330
B6F
100
AcDbEntity
  8
TEXT35
 62
     1
100
AcDbLine
 10
-61.97525033010713
 20
22.67243709271387
 30
0.0
 11
-61.97525033010713
 21
26.64287778901508
 31
0.0
  0
LINE
  5
B7B
330
B6F
100
AcDbEntity
  8
TEXT35
 62
     1
100
AcDbLine
 10
-61.97525033010713
 20
26.64287778901508
 30
0.0
 11
-63.65188118276229
 21
26.64287778901508
 31
0.0
  0
LINE
  5
B7C
330
B6F
100
AcDbEntity
  8
TEXT35
 62
     1
100
AcDbLine
 10
-65.59123305389153
 20
26.64287778901508
 30
0.0
 11
-65.59123305389153
 21
22.67243709271387
 31
0.0
  0
LINE
  5
B7D
330
B6F
100
AcDbEntity
  8
TEXT35
 62
     1
100
AcDbLine
 10
-65.59123305389153
 20
22.67243709271387
 30
0.0
 11
-63.91460220123637
 21
22.67243709271387
 31
0.0
  0
LINE
  5
B7E
330
B6F
100
AcDbEntity
  8
TEXT35
 62
     1
100
AcDbLine
 10
-63.91460220123637
 20
22.67243709271387
 30
0.0
 11
-63.91460220123637
 21
26.64287778901508
 31
0.0
  0
LINE
  5
B7F
330
B6F
100
AcDbEntity
  8
TEXT35
 62
     1
100
AcDbLine
 10
-63.91460220123637
 20
26.64287778901508
 30
0.0
 11
-65.59123305389153
 21
26.64287778901508
 31
0.0
  0
LWPOLYLINE
  5
B80
330
B6F
100
AcDbEntity
  8
TEXT35
 62
     1
100
AcDbPolyline
 90
        7
 70
     1
 43
0.0
 10
-65.22674891363384
 20
23.01948515399511
 42
-0.0323236910300514
 10
-65.21349517569657
 20
23.20943071529944
 10
-64.29234007943129
 20
23.20943071529944
 42
-0.0323236910300515
 10
-64.27908634149405
 20
23.01948515399511
 10
-64.06848400222843
 20
23.01948515399511
 42
0.2369604974400691
 10
-64.75291762756397
 20
24.36773071529937
 42
0.2369604974400691
 10
-65.43735125289946
 20
23.01948515399511
  0
LWPOLYLINE
  5
B81
330
B6F
100
AcDbEntity
  8
TEXT35
 62
     1
100
AcDbPolyline
 90
        3
 70
     1
 43
0.0
 10
-64.75291762756391
 20
24.09490775656955
 42
-0.1369919174131033
 10
-64.33664376098296
 20
23.42003071529944
 10
-65.16919149414492
 20
23.42003071529944
 42
-0.136991917413112
  0
LINE
  5
B82
330
B6F
100
AcDbEntity
  8
TEXT35
 62
     1
100
AcDbLine
 10
-61.71252931163305
 20
22.67243709271387
 30
0.0
 11
-61.71252931163305
 21
26.64287778901508
 31
0.0
  0
LINE
  5
B83
330
B6F
100
AcDbEntity
  8
TEXT35
 62
     1
100
AcDbLine
 10
-60.03589845897789
 20
26.64287778901508
 30
0.0
 11
-60.03589845897789
 21
22.67243709271387
 31
0.0
  0
LINE
  5
B84
330
B6F
100
AcDbEntity
  8
TEXT35
 62
     1
100
AcDbLine
 10
-60.03589845897789
 20
22.67243709271387
 30
0.0
 11
-61.71252931163305
 21
22.67243709271387
 31
0.0
  0
CIRCLE
  5
B85
330
B6F
100
AcDbEntity
  8
TEXT35
 62
     1
100
AcDbCircle
 10
-60.87421388530549
 20
23.71314717889681
 30
0.0
 40
0.6844499999999997
  0
CIRCLE
  5
B86
330
B6F
100
AcDbEntity
  8
TEXT35
 62
     1
100
AcDbCircle
 10
-60.87421388530549
 20
23.71314717889681
 30
0.0
 40
0.4738499999999997
  0
LINE
  5
B87
330
B6F
100
AcDbEntity
  8
TEXT35
 62
     1
100
AcDbLine
 10
-61.71252931163305
 20
26.64287778901508
 30
0.0
 11
-60.03589845897789
 21
26.64287778901508
 31
0.0
  0
ENDBLK
  5
B8B
330
B6F
100
AcDbEntity
  8
0
100
AcDbBlockEnd
  0
ENDSEC
  0
SECTION
  2
ENTITIES
  0
MTEXT
  5
136
330
17
100
AcDbEntity
  8
SICHTBAR
100
AcDbMText
 10
147.7897851914508
 20
522.9960869862297
 30
0.0
 40
2.5
 41
504.8999999999999
 71
     1
 72
     5
  1

  7
BEMASS-25
 73
     1
 44
1.0
1001
ACAD
1000
MTEXTBEGIN
1070
    73
1070
     1
1070
    44
1040
1.0
1070
    74
1070
     0
1000
MTEXTEND
  0
INSERT
  5
77D
330
17
100
AcDbEntity
  8
AM_BOR
100
AcDbBlockReference
 66
     1
  2
SF_WEB
 10
2070.0
 20
30.0
 30
0.0
 41
5.0
 42
5.0
 43
5.0
  0
ATTRIB
  5
77E
330
77D
100
AcDbEntity
  8
TEXT35
100
AcDbText
 10
1110.142788243675
 20
124.065215433708
 30
0.0
 40
15.0
  1
ACO Vario Schuabstreifer Unterteil
 41
0.8000000000000001
  7
TEXT35
100
AcDbAttribute
  2
F2
 70
     0
  0
ATTRIB
  5
77F
330
77D
100
AcDbEntity
  8
TEXT35
100
AcDbText
 10
1110.142788243675
 20
101.9684241262067
 30
0.0
 40
15.0
  1
75x50 cm mit Kantenschutz
 41
0.8000000000000001
  7
TEXT35
100
AcDbAttribute
  2
F3
 70
     0
  0
ATTRIB
  5
780
330
77D
100
AcDbEntity
  8
TEXT25
100
AcDbText
 10
1754.650819982057
 20
38.90733732892428
 30
0.0
 40
12.5
  1

 41
0.8
  7
TEXT25
100
AcDbAttribute
  2
F11
 70
     0
  0
ATTRIB
  5
781
330
77D
100
AcDbEntity
  8
TEXT25
100
AcDbText
 10
1565.904039771599
 20
112.6962326396464
 30
0.0
 40
10.0
  1
20.03.2013
 41
0.8
  7
TEXT20
100
AcDbAttribute
  2
F53
 70
     0
  0
ATTRIB
  5
782
330
77D
100
AcDbEntity
  8
TEXT25
100
AcDbText
 10
1566.070135833568
 20
134.0752351233225
 30
0.0
 40
10.0
  1
20.03.2013
 41
0.8
  7
TEXT20
100
AcDbAttribute
  2
F9
 70
     0
  0
ATTRIB
  5
783
330
77D
100
AcDbEntity
  8
TEXT25
100
AcDbText
 10
1630.422976814713
 20
113.8179318911811
 30
0.0
 40
10.0
  1
osetzke
 41
0.8
  7
TEXT20
100
AcDbAttribute
  2
F52
 70
     0
  0
ATTRIB
  5
784
330
77D
100
AcDbEntity
  8
TEXT35
100
AcDbText
 10
1109.632591299629
 20
67.59610805190604
 30
0.0
 40
17.5
  1
Art.-Nr.:00399
 41
0.8000000000000001
  7
TEXT35
100
AcDbAttribute
  2
F13
 70
     0
  0
ATTRIB
  5
785
330
77D
100
AcDbEntity
  8
TEXT25
100
AcDbText
 10
1630.4767963938
 20
133.6605533467595
 30
0.0
 40
10.0
  1
osetzke
 41
0.8
  7
TEXT20
100
AcDbAttribute
  2
F8
 70
     0
  0
ATTRIB
  5
786
330
77D
100
AcDbEntity
  8
TEXT35
100
AcDbText
 10
1708.470276252485
 20
67.79414689820697
 30
0.0
 40
17.5
  1
G1-K03-152-3
 41
0.8000000000000001
  7
TEXT35
100
AcDbAttribute
  2
F1
 70
     0
  0
SEQEND
  5
787
330
77D
100
AcDbEntity
  8
AM_BOR
  0
LINE
  5
92C
330
17
100
AcDbEntity
  8
VERDECKT
100
AcDbLine
 10
765.4547181915542
 20
1237.855336257014
 30
0.0
 11
465.2137766948722
 21
1237.855336257014
 31
0.0
  0
LINE
  5
92D
330
17
100
AcDbEntity
  8
SICHTBAR
100
AcDbLine
 10
440.4553779423395
 20
1306.855336257014
 30
0.0
 11
1190.455377942339
 21
1306.855336257014
 31
0.0
  0
LINE
  5
92E
330
17
100
AcDbEntity
  8
SICHTBAR
100
AcDbLine
 10
448.4553779423396
 20
1226.855336257014
 30
0.0
 11
1182.455377942339
 21
1226.855336257014
 31
0.0
  0
LINE
  5
92F
330
17
100
AcDbEntity
  8
VERDECKT
100
AcDbLine
 10
456.9553779423395
 20
1286.855336257014
 30
0.0
 11
1173.955377942339
 21
1286.855336257014
 31
0.0
  0
LINE
  5
930
330
17
100
AcDbEntity
  8
SICHTBAR
100
AcDbLine
 10
441.4553779423396
 20
1284.855336257014
 30
0.0
 11
1189.455377942339
 21
1284.855336257014
 31
0.0
  0
LINE
  5
931
330
17
100
AcDbEntity
  8
SICHTBAR
100
AcDbLine
 10
448.4553779423395
 20
1255.855336257013
 30
0.0
 11
1182.455377942339
 21
1255.855336257014
 31
0.0
  0
LINE
  5
932
330
17
100
AcDbEntity
  8
SICHTBAR
100
AcDbLine
 10
444.4553779423394
 20
1259.855336257014
 30
0.0
 11
1186.455377942339
 21
1259.855336257014
 31
0.0
  0
LINE
  5
933
330
17
100
AcDbEntity
  8
VERDECKT
100
AcDbLine
 10
456.9553779423395
 20
1283.855336257014
 30
0.0
 11
805.4553779423397
 21
1283.855336257014
 31
0.0
  0
LINE
  5
934
330
17
100
AcDbEntity
  8
DUENN
100
AcDbLine
 10
482.4553779423395
 20
800.2140791851427
 30
0.0
 11
802.2775494004653
 21
800.2140791851454
 31
0.0
  0
LINE
  5
935
330
17
100
AcDbEntity
  8
SICHTBAR
100
AcDbLine
 10
482.9553779423397
 20
792.0362506432698
 30
0.0
 11
810.4553779423396
 21
792.0362506432698
 31
0.0
  0
LINE
  5
936
330
17
100
AcDbEntity
  8
SICHTBAR
100
AcDbLine
 10
482.9553779423397
 20
782.0362506432697
 30
0.0
 11
810.4553779423392
 21
782.0362506432697
 31
0.0
  0
LINE
  5
937
330
17
100
AcDbEntity
  8
DUENN
100
AcDbLine
 10
482.4553779423395
 20
773.8584221013973
 30
0.0
 11
802.277549400466
 21
773.8584221013947
 31
0.0
  0
LWPOLYLINE
  5
938
330
17
100
AcDbEntity
  8
DUENN
100
AcDbPolyline
 90
        2
 70
     0
 43
0.0
 10
787.2775494004673
 20
554.0362506432698
 10
472.9553779423396
 20
554.0362506432698
  0
LWPOLYLINE
  5
939
330
17
100
AcDbEntity
  8
DUENN
100
AcDbPolyline
 90
        2
 70
     0
 43
0.0
 10
472.9553779423396
 20
554.0362506432698
 10
787.2775494004673
 20
554.0362506432698
  0
LINE
  5
93A
330
17
100
AcDbEntity
  8
DUENN
100
AcDbLine
 10
787.2775494004676
 20
1024.02128184776
 30
0.0
 11
472.9553779423397
 21
1024.02128184776
 31
0.0
  0
LINE
  5
93B
330
17
100
AcDbEntity
  8
SICHTBAR
100
AcDbLine
 10
783.7775494004674
 20
1028.52128184776
 30
0.0
 11
452.9553779423397
 21
1028.52128184776
 31
0.0
  0
LINE
  5
93C
330
17
100
AcDbEntity
  8
SICHTBAR
100
AcDbLine
 10
1177.955377942339
 20
549.5362506432697
 30
0.0
 11
452.9553779423397
 21
549.5362506432695
 31
0.0
  0
LINE
  5
93D
330
17
100
AcDbEntity
  8
SICHTBAR
100
AcDbLine
 10
452.9553779423397
 20
549.5362506432697
 30
0.0
 11
1177.955377942339
 21
549.5362506432697
 31
0.0
  0
LWPOLYLINE
  5
93E
330
17
100
AcDbEntity
  8
SICHTBAR
100
AcDbPolyline
 90
        4
 70
     1
 43
0.0
 10
1188.455377942339
 20
1039.021281847759
 10
442.4553779423396
 20
1039.02128184776
 10
442.4553779423396
 20
539.0362506432698
 10
1188.455377942339
 20
539.03625064327
  0
LWPOLYLINE
  5
93F
330
17
100
AcDbEntity
  8
SICHTBAR
100
AcDbPolyline
 90
        4
 70
     1
 43
0.0
 10
1190.455377942339
 20
1041.021281847759
 10
440.4553779423395
 20
1041.021281847759
 10
440.4553779423395
 20
537.0362506432697
 10
1190.455377942339
 20
537.0362506432697
  0
LINE
  5
940
330
17
100
AcDbEntity
  8
MITTE
100
AcDbLine
 10
440.4553779423397
 20
787.0362506432698
 30
0.0
 11
1206.808232862569
 21
787.0362506432698
 31
0.0
  0
ARC
  5
941
330
17
100
AcDbEntity
  8
SICHTBAR
100
AcDbCircle
 10
482.9553779423397
 20
822.0362506432698
 30
0.0
 40
30.0
100
AcDbArc
 50
180.0
 51
270.0
  0
ARC
  5
942
330
17
100
AcDbEntity
  8
DUENN
100
AcDbCircle
 10
482.4553779423395
 20
825.2140791851427
 30
0.0
 40
25.0
100
AcDbArc
 50
180.0
 51
270.0
  0
LINE
  5
943
330
17
100
AcDbEntity
  8
SICHTBAR
100
AcDbLine
 10
452.9553779423397
 20
1028.52128184776
 30
0.0
 11
452.9553779423397
 21
752.0362506432697
 31
0.0
  0
LINE
  5
944
330
17
100
AcDbEntity
  8
SICHTBAR
100
AcDbLine
 10
452.9553779423397
 20
752.0362506432697
 30
0.0
 11
452.9553779423397
 21
549.5362506432697
 31
0.0
  0
LINE
  5
945
330
17
100
AcDbEntity
  8
DUENN
100
AcDbLine
 10
457.4553779423395
 20
748.8584221013972
 30
0.0
 11
457.4553779423395
 21
569.5362506432696
 31
0.0
  0
ARC
  5
946
330
17
100
AcDbEntity
  8
DUENN
100
AcDbCircle
 10
472.9553779423397
 20
569.5362506432696
 30
0.0
 40
15.50000000000011
100
AcDbArc
 50
180.0
 51
270.0
  0
ARC
  5
947
330
17
100
AcDbEntity
  8
SICHTBAR
100
AcDbCircle
 10
472.9553779423397
 20
569.5362506432696
 30
0.0
 40
20.0
100
AcDbArc
 50
180.0
 51
270.0
  0
LINE
  5
948
330
17
100
AcDbEntity
  8
SICHTBAR
100
AcDbLine
 10
440.4553779423397
 20
537.0362506432695
 30
0.0
 11
452.9553779423397
 21
549.5362506432695
 31
0.0
  0
ARC
  5
949
330
17
100
AcDbEntity
  8
SICHTBAR
100
AcDbCircle
 10
482.9553779423397
 20
752.0362506432697
 30
0.0
 40
30.0
100
AcDbArc
 50
90.0
 51
180.0
  0
ARC
  5
94A
330
17
100
AcDbEntity
  8
DUENN
100
AcDbCircle
 10
482.4553779423395
 20
748.8584221013972
 30
0.0
 40
25.0
100
AcDbArc
 50
90.0
 51
180.0
  0
LINE
  5
94B
330
17
100
AcDbEntity
  8
DUENN
100
AcDbLine
 10
457.4553779423395
 20
1008.52128184776
 30
0.0
 11
457.4553779423395
 21
825.2140791851427
 31
0.0
  0
ARC
  5
94C
330
17
100
AcDbEntity
  8
DUENN
100
AcDbCircle
 10
472.9553779423397
 20
1008.52128184776
 30
0.0
 40
15.50000000000011
100
AcDbArc
 50
90.0
 51
180.0
  0
ARC
  5
94D
330
17
100
AcDbEntity
  8
SICHTBAR
100
AcDbCircle
 10
472.9553779423397
 20
1008.52128184776
 30
0.0
 40
20.0
100
AcDbArc
 50
90.0
 51
180.0
  0
LINE
  5
94E
330
17
100
AcDbEntity
  8
SICHTBAR
100
AcDbLine
 10
440.4553779423397
 20
1041.021281847759
 30
0.0
 11
452.9553779423397
 21
1028.52128184776
 31
0.0
  0
LINE
  5
94F
330
17
100
AcDbEntity
  8
SICHTBAR
100
AcDbLine
 10
440.4553779423395
 20
1306.855336257014
 30
0.0
 11
440.4553779423395
 21
1285.855336257014
 31
0.0
  0
LINE
  5
950
330
17
100
AcDbEntity
  8
VERDECKT
100
AcDbLine
 10
442.4553779423395
 20
1306.355336257014
 30
0.0
 11
442.4553779423396
 21
1287.355336257014
 31
0.0
  0
LINE
  5
951
330
17
100
AcDbEntity
  8
VERDECKT
100
AcDbLine
 10
457.5192895106605
 20
1284.855336257014
 30
0.0
 11
460.2239572386168
 21
1242.536429069926
 31
0.0
  0
LINE
  5
952
330
17
100
AcDbEntity
  8
SICHTBAR
100
AcDbLine
 10
448.4553779423395
 20
1255.855336257014
 30
0.0
 11
448.4553779423395
 21
1226.855336257014
 31
0.0
  0
ARC
  5
953
330
17
100
AcDbEntity
  8
VERDECKT
100
AcDbCircle
 10
465.2137766948722
 20
1242.855336257014
 30
0.0
 40
5.0
100
AcDbArc
 50
183.6568894538981
 51
270.0
  0
LINE
  5
954
330
17
100
AcDbEntity
  8
SICHTBAR
100
AcDbLine
 10
444.4553779423396
 20
1284.855336257014
 30
0.0
 11
444.4553779423394
 21
1259.855336257014
 31
0.0
  0
LINE
  5
955
330
17
100
AcDbEntity
  8
SICHTBAR
100
AcDbLine
 10
444.4553779423394
 20
1259.855336257014
 30
0.0
 11
448.4553779423394
 21
1255.855336257014
 31
0.0
  0
ARC
  5
956
330
17
100
AcDbEntity
  8
VERDECKT
100
AcDbCircle
 10
456.9553779423395
 20
1286.355336257014
 30
0.0
 40
0.5
100
AcDbArc
 50
0.0
 51
90.0
  0
LINE
  5
957
330
17
100
AcDbEntity
  8
VERDECKT
100
AcDbLine
 10
457.4553779423395
 20
1286.355336257014
 30
0.0
 11
457.4553779423395
 21
1285.855336257014
 31
0.0
  0
LINE
  5
958
330
17
100
AcDbEntity
  8
VERDECKT
100
AcDbLine
 10
457.4553779423395
 20
1285.855336257014
 30
0.0
 11
457.5192895106604
 21
1284.855336257014
 31
0.0
  0
ARC
  5
959
330
17
100
AcDbEntity
  8
VERDECKT
100
AcDbCircle
 10
442.9553779423396
 20
1287.355336257014
 30
0.0
 40
0.5
100
AcDbArc
 50
180.0
 51
270.0
  0
LINE
  5
95A
330
17
100
AcDbEntity
  8
VERDECKT
100
AcDbLine
 10
442.9553779423396
 20
1286.855336257014
 30
0.0
 11
456.9553779423395
 21
1286.855336257014
 31
0.0
  0
ARC
  5
95B
330
17
100
AcDbEntity
  8
SICHTBAR
100
AcDbCircle
 10
441.4553779423396
 20
1285.855336257014
 30
0.0
 40
1.0
100
AcDbArc
 50
180.0
 51
270.0
  0
ARC
  5
95C
330
17
100
AcDbEntity
  8
VERDECKT
100
AcDbCircle
 10
441.4553779423394
 20
1305.855336257014
 30
0.0
 40
1.000000000000007
100
AcDbArc
 50
180.0
 51
180.0
  0
ARC
  5
95D
102
{ACAD_REACTORS
330
95F
102
}
330
17
100
AcDbEntity
  8
SICHTBAR
100
AcDbCircle
 10
1556.179178198173
 20
803.9670420502291
 30
0.0
 40
5.0
100
AcDbArc
 50
180.0
 51
262.7594694969571
  0
LINE
  5
95E
102
{ACAD_REACTORS
330
95F
102
}
330
17
100
AcDbEntity
  8
SICHTBAR
100
AcDbLine
 10
1551.179178198173
 20
805.3018437294346
 30
0.0
 11
1551.179178198173
 21
770.1417830127795
 31
0.0
  0
HATCH
  5
95F
330
17
100
AcDbEntity
  8
SCHRAFF
100
AcDbHatch
 10
0.0
 20
0.0
 30
0.0
210
0.0
220
0.0
230
1.0
  2
ANSI31
 70
     0
 71
     1
 91
        5
 92
       17
 93
        2
 72
     1
 10
1597.179178198172
 20
784.668508604065
 11
1597.179178198172
 21
789.4039926824748
 72
     1
 10
1597.179178198172
 20
789.4039926824748
 11
1597.179178198172
 21
784.668508604065
 97
        2
330
9EE
330
9ED
 92
       16
 93
        2
 72
     1
 10
1597.179178198172
 20
784.668508604065
 11
1597.179178198172
 21
789.4039926824748
 72
     1
 10
1597.179178198172
 20
789.4039926824748
 11
1597.179178198172
 21
784.668508604065
 97
        2
330
9EE
330
9ED
 92
        0
 93
        2
 72
     1
 10
1597.179178198172
 20
784.668508604065
 11
1597.179178198172
 21
789.4039926824748
 72
     1
 10
1597.179178198172
 20
789.4039926824748
 11
1597.179178198172
 21
784.668508604065
 97
        2
330
9EE
330
9ED
 92
        0
 93
        2
 72
     1
 10
1597.179178198172
 20
784.668508604065
 11
1597.179178198172
 21
789.4039926824748
 72
     1
 10
1597.179178198172
 20
789.4039926824748
 11
1597.179178198172
 21
784.668508604065
 97
        2
330
9EE
330
9ED
 92
       33
 93
        9
 72
     1
 10
1551.179178198173
 20
805.3018437294346
 11
1551.179178198173
 21
770.1417830127795
 72
     2
 10
1556.179178198173
 20
803.9670420502291
 40
5.0
 50
180.0
 51
262.7594694969586
 73
     1
 72
     1
 10
1592.841569120307
 20
780.0984829248334
 11
1555.549003123744
 21
775.1019119804141
 72
     2
 10
1556.179178198173
 20
770.1417830127795
 40
5.0
 50
97.24053050304142
 51
180.0
 73
     1
 72
     1
 10
1555.549003123744
 20
799.0069130825943
 11
1592.842134780045
 21
794.0147944647924
 72
     2
 10
1592.179178198172
 20
789.0544125315042
 40
5.0
 50
0.0
 51
82.38717931756953
 73
     1
 72
     2
 10
1592.179178198172
 20
785.0544125315041
 40
5.0
 50
277.6128206824304
 51
360.0
 73
     1
 72
     1
 10
1597.179178198172
 20
789.0544125315042
 11
1597.179178198172
 21
785.0544125315041
 72
     1
 10
1597.179178198172
 20
788.0544125315043
 11
1597.179178198172
 21
786.054412531504
 97
       11
330
9EE
330
9ED
330
95E
330
95D
330
9E9
330
9EB
330
9E8
330
9F0
330
9EC
330
9F1
330
9EF
 75
     0
 76
     1
 52
0.0
 41
37.5
 77
     0
 78
     1
 53
45.0
 43
345.1338330210512
 44
469.4282566794245
 45
-3.314563036811941
 46
3.314563036811941
 79
     0
 98
        1
 10
345.1338330210512
 20
469.4282566794245
  0
LINE
  5
960
330
17
100
AcDbEntity
  8
SICHTBAR
100
AcDbLine
 10
1540.179178198172
 20
843.5362506432696
 30
0.0
 11
1540.179178198172
 21
730.5362506432694
 31
0.0
  0
LINE
  5
961
330
17
100
AcDbEntity
  8
SICHTBAR
100
AcDbLine
 10
1546.360835906345
 20
837.0544129955399
 30
0.0
 11
1546.360835906345
 21
737.0458305351334
 31
0.0
  0
LINE
  5
962
330
17
100
AcDbEntity
  8
SICHTBAR
100
AcDbLine
 10
1362.599689682148
 20
801.03625064327
 30
0.0
 11
1362.599689682148
 21
773.0362506432694
 31
0.0
  0
LINE
  5
963
330
17
100
AcDbEntity
  8
DUENN
100
AcDbLine
 10
1361.349689682148
 20
801.03625064327
 30
0.0
 11
1361.349689682148
 21
773.0362506432694
 31
0.0
  0
LINE
  5
964
330
17
100
AcDbEntity
  8
SICHTBAR
100
AcDbLine
 10
1600.179178198172
 20
1020.53625064327
 30
0.0
 11
1600.179178198172
 21
553.5362506432695
 31
0.0
  0
LINE
  5
965
330
17
100
AcDbEntity
  8
SICHTBAR
100
AcDbLine
 10
1385.423951550536
 20
537.0362506432697
 30
0.0
 11
1385.423951550536
 21
1037.03625064327
 31
0.0
  0
LINE
  5
966
330
17
100
AcDbEntity
  8
VERDECKT
100
AcDbLine
 10
1387.423951550537
 20
1020.53625064327
 30
0.0
 11
1387.423951550537
 21
553.5362506432695
 31
0.0
  0
LINE
  5
967
330
17
100
AcDbEntity
  8
SICHTBAR
100
AcDbLine
 10
1407.423951550537
 20
537.0362506432697
 30
0.0
 11
1407.423951550537
 21
1037.03625064327
 31
0.0
  0
LINE
  5
968
102
{ACAD_REACTORS
330
AD7
102
}
330
17
100
AcDbEntity
  8
SICHTBAR
100
AcDbLine
 10
1599.179178198172
 20
1020.53625064327
 30
0.0
 11
1599.179178198172
 21
553.5362506432695
 31
0.0
  0
LINE
  5
969
330
17
100
AcDbEntity
  8
VERDECKT
100
AcDbLine
 10
1338.423951550537
 20
801.1186962450883
 30
0.0
 11
1342.541421839452
 21
800.3803458569317
 31
0.0
  0
ARC
  5
96A
330
17
100
AcDbEntity
  8
VERDECKT
100
AcDbCircle
 10
1343.423951550537
 20
805.3018437294346
 30
0.0
 40
5.0
100
AcDbArc
 50
180.0
 51
259.8336934403672
  0
LINE
  5
96B
330
17
100
AcDbEntity
  8
SICHTBAR
100
AcDbLine
 10
1345.423951550536
 20
806.0362506432696
 30
0.0
 11
1345.423951550536
 21
768.0362506432694
 31
0.0
  0
LINE
  5
96C
330
17
100
AcDbEntity
  8
VERDECKT
100
AcDbLine
 10
1338.423951550537
 20
805.3018437294346
 30
0.0
 11
1338.423951550537
 21
768.7662573567839
 31
0.0
  0
LINE
  5
96D
330
17
100
AcDbEntity
  8
SICHTBAR
100
AcDbLine
 10
1351.349689682148
 20
806.0362506432696
 30
0.0
 11
1351.349689682148
 21
768.0362506432694
 31
0.0
  0
LINE
  5
96E
330
17
100
AcDbEntity
  8
VERDECKT
100
AcDbLine
 10
1333.605609258708
 20
837.0544129955399
 30
0.0
 11
1333.605609258708
 21
737.0458305351334
 31
0.0
  0
ARC
  5
96F
330
17
100
AcDbEntity
  8
DUENN
100
AcDbCircle
 10
1148.455377942339
 20
825.2140791851426
 30
0.0
 40
25.0
100
AcDbArc
 50
270.0
 51
0.0
  0
ARC
  5
970
330
17
100
AcDbEntity
  8
SICHTBAR
100
AcDbCircle
 10
1147.955377942339
 20
822.0362506432698
 30
0.0
 40
30.0
100
AcDbArc
 50
270.0
 51
0.0
  0
ARC
  5
971
330
17
100
AcDbEntity
  8
VERDECKT
100
AcDbCircle
 10
815.4553779423396
 20
787.0362506432698
 30
0.0
 40
56.5
100
AcDbArc
 50
103.4876581022757
 51
166.5123418977258
  0
ARC
  5
972
330
17
100
AcDbEntity
  8
VERDECKT
100
AcDbCircle
 10
815.4553779423396
 20
787.0362506432698
 30
0.0
 40
55.0
100
AcDbArc
 50
103.8627492758244
 51
166.1372507241787
  0
ARC
  5
973
330
17
100
AcDbEntity
  8
SICHTBAR
100
AcDbCircle
 10
815.4553779423396
 20
787.0362506432698
 30
0.0
 40
50.0
100
AcDbArc
 50
105.2812016323961
 51
164.7187983676038
  0
ARC
  5
974
330
17
100
AcDbEntity
  8
SICHTBAR
100
AcDbCircle
 10
815.4553779423396
 20
787.0362506432698
 30
0.0
 40
50.0
100
AcDbArc
 50
15.28120163239614
 51
74.71879836760386
  0
ARC
  5
975
330
17
100
AcDbEntity
  8
VERDECKT
100
AcDbCircle
 10
815.4553779423396
 20
787.0362506432698
 30
0.0
 40
55.0
100
AcDbArc
 50
13.8627492758213
 51
76.13725072417556
  0
ARC
  5
976
330
17
100
AcDbEntity
  8
VERDECKT
100
AcDbCircle
 10
815.4553779423396
 20
787.0362506432698
 30
0.0
 40
56.5
100
AcDbArc
 50
13.48765810227414
 51
76.51234189772431
  0
LINE
  5
977
330
17
100
AcDbEntity
  8
DUENN
100
AcDbLine
 10
828.6332064842124
 20
1009.021281847759
 30
0.0
 11
828.6332064842142
 21
800.214079185145
 31
0.0
  0
LINE
  5
978
330
17
100
AcDbEntity
  8
DUENN
100
AcDbLine
 10
802.2775494004676
 20
1009.021281847759
 30
0.0
 11
802.2775494004653
 21
800.2140791851454
 31
0.0
  0
LINE
  5
979
330
17
100
AcDbEntity
  8
SICHTBAR
100
AcDbLine
 10
820.4553779423395
 20
1008.52128184776
 30
0.0
 11
820.4553779423395
 21
792.0362506432698
 31
0.0
  0
LINE
  5
97A
330
17
100
AcDbEntity
  8
SICHTBAR
100
AcDbLine
 10
810.4553779423396
 20
1008.52128184776
 30
0.0
 11
810.4553779423396
 21
792.0362506432698
 31
0.0
  0
LINE
  5
97B
330
17
100
AcDbEntity
  8
MITTE
100
AcDbLine
 10
815.4553779423396
 20
1047.168135616482
 30
0.0
 11
815.4553779423396
 21
526.5839077686027
 31
0.0
  0
LINE
  5
97C
330
17
100
AcDbEntity
  8
SICHTBAR
100
AcDbLine
 10
1177.955377942339
 20
549.5362506432697
 30
0.0
 11
1177.955377942339
 21
1028.52128184776
 31
0.0
  0
LINE
  5
97D
330
17
100
AcDbEntity
  8
SICHTBAR
100
AcDbLine
 10
1327.423951550537
 20
1030.036250643269
 30
0.0
 11
1327.423951550537
 21
544.0362506432702
 31
0.0
  0
LINE
  5
980
330
17
100
AcDbEntity
  8
SICHTBAR
100
AcDbLine
 10
1385.423951550536
 20
773.0362506432694
 30
0.0
 11
1361.349689682148
 21
773.0362506432694
 31
0.0
  0
LINE
  5
981
330
17
100
AcDbEntity
  8
SICHTBAR
100
AcDbLine
 10
1385.423951550536
 20
540.0362506432704
 30
0.0
 11
1360.423951550536
 21
540.0362506432698
 31
0.0
  0
LINE
  5
982
330
17
100
AcDbEntity
  8
VERDECKT
100
AcDbLine
 10
1385.423951550536
 20
554.100162109341
 30
0.0
 11
1345.040794259914
 21
556.6811088963944
 31
0.0
  0
LINE
  5
983
330
17
100
AcDbEntity
  8
VERDECKT
100
AcDbLine
 10
1388.632658834584
 20
787.0362506432698
 30
0.0
 11
1321.514702359831
 21
787.0362506432698
 31
0.0
  0
LINE
  5
984
330
17
100
AcDbEntity
  8
VERDECKT
100
AcDbLine
 10
1342.541421839452
 20
800.3803458569317
 30
0.0
 11
1381.386661415377
 21
792.8654951689716
 31
0.0
  0
LINE
  5
985
330
17
100
AcDbEntity
  8
VERDECKT
100
AcDbLine
 10
1342.540783889311
 20
773.6876407885196
 30
0.0
 11
1381.321432198602
 21
781.194773999795
 31
0.0
  0
LINE
  5
986
330
17
100
AcDbEntity
  8
SICHTBAR
100
AcDbLine
 10
1385.423951550536
 20
768.0362506432694
 30
0.0
 11
1345.423951550536
 21
768.0362506432694
 31
0.0
  0
LINE
  5
987
330
17
100
AcDbEntity
  8
MITTE
100
AcDbLine
 10
1320.414814422388
 20
787.0362506432698
 30
0.0
 11
1397.317910177973
 21
787.0362506432698
 31
0.0
  0
LINE
  5
988
330
17
100
AcDbEntity
  8
SICHTBAR
100
AcDbLine
 10
1147.955377942339
 20
782.0362506432697
 30
0.0
 11
820.4553779423395
 21
782.0362506432697
 31
0.0
  0
LINE
  5
989
330
17
100
AcDbEntity
  8
SICHTBAR
100
AcDbLine
 10
1147.955377942339
 20
792.0362506432698
 30
0.0
 11
820.4553779423395
 21
792.0362506432698
 31
0.0
  0
LINE
  5
98A
330
17
100
AcDbEntity
  8
DUENN
100
AcDbLine
 10
1148.455377942339
 20
773.8584221013973
 30
0.0
 11
828.6332064842142
 21
773.8584221013947
 31
0.0
  0
LINE
  5
98B
330
17
100
AcDbEntity
  8
DUENN
100
AcDbLine
 10
1148.455377942338
 20
800.2140791851426
 30
0.0
 11
828.6332064842142
 21
800.214079185145
 31
0.0
  0
LWPOLYLINE
  5
98C
330
17
100
AcDbEntity
  8
DUENN
100
AcDbPolyline
 90
        2
 70
     0
 43
0.0
 10
1157.95537794234
 20
554.03625064327
 10
843.6332064842122
 20
554.0362506432698
  0
LWPOLYLINE
  5
98D
330
17
100
AcDbEntity
  8
DUENN
100
AcDbPolyline
 90
        2
 70
     0
 43
0.0
 10
843.6332064842122
 20
554.0362506432698
 10
1157.95537794234
 20
554.03625064327
  0
LINE
  5
98E
330
17
100
AcDbEntity
  8
DUENN
100
AcDbLine
 10
802.2775494004676
 20
569.03625064327
 30
0.0
 11
802.277549400466
 21
773.8584221013947
 31
0.0
  0
LINE
  5
98F
330
17
100
AcDbEntity
  8
DUENN
100
AcDbLine
 10
828.6332064842142
 20
773.8584221013947
 30
0.0
 11
828.6332064842159
 21
569.0362506432693
 31
0.0
  0
LINE
  5
990
330
17
100
AcDbEntity
  8
SICHTBAR
100
AcDbLine
 10
820.4553779423395
 20
782.0362506432697
 30
0.0
 11
820.4553779423395
 21
569.5362506432696
 31
0.0
  0
LINE
  5
991
330
17
100
AcDbEntity
  8
SICHTBAR
100
AcDbLine
 10
810.4553779423392
 20
782.0362506432697
 30
0.0
 11
810.4553779423392
 21
569.5362506432696
 31
0.0
  0
ARC
  5
992
330
17
100
AcDbEntity
  8
SICHTBAR
100
AcDbCircle
 10
790.4553779423395
 20
569.5362506432696
 30
0.0
 40
20.0
100
AcDbArc
 50
270.0
 51
0.0
  0
ARC
  5
993
330
17
100
AcDbEntity
  8
DUENN
100
AcDbCircle
 10
787.2775494004676
 20
569.0362506432697
 30
0.0
 40
15.0
100
AcDbArc
 50
270.0
 51
0.0
  0
ARC
  5
994
330
17
100
AcDbEntity
  8
DUENN
100
AcDbCircle
 10
843.6332064842122
 20
569.0362506432697
 30
0.0
 40
15.0
100
AcDbArc
 50
180.0
 51
270.0
  0
ARC
  5
995
330
17
100
AcDbEntity
  8
SICHTBAR
100
AcDbCircle
 10
840.4553779423396
 20
569.5362506432696
 30
0.0
 40
20.0
100
AcDbArc
 50
180.0
 51
270.0
  0
INSERT
  5
996
330
17
100
AcDbEntity
  8
BEMASS
100
AcDbBlockReference
 66
     1
  2
SCHNITT
 10
815.4553779423396
 20
513.8582084899102
 30
0.0
 41
2.5
 42
2.5
 43
2.5
  0
ATTRIB
  5
997
330
996
100
AcDbEntity
  8
TEXT50
100
AcDbText
 10
820.8089835370493
 20
507.6054965870794
 30
0.0
 40
12.5
  1
C
 41
0.8
  7
TEXT50
100
AcDbAttribute
  2
SCHNITTB
 70
     0
  0
ATTRIB
  5
998
330
996
100
AcDbEntity
  8
PN
100
AcDbText
 10
815.4553779423396
 20
513.8582084899102
 30
0.0
 40
12.5
  1
PN000000
 41
0.8
  7
TEXT50
100
AcDbAttribute
  2
PN
 70
     1
  0
SEQEND
  5
999
330
996
100
AcDbEntity
  8
BEMASS
  0
ARC
  5
99A
330
17
100
AcDbEntity
  8
VERDECKT
100
AcDbCircle
 10
815.4553779423396
 20
787.0362506432698
 30
0.0
 40
56.5
100
AcDbArc
 50
283.4876581022756
 51
346.5123418977258
  0
ARC
  5
99B
330
17
100
AcDbEntity
  8
VERDECKT
100
AcDbCircle
 10
815.4553779423396
 20
787.0362506432698
 30
0.0
 40
55.0
100
AcDbArc
 50
283.8627492758244
 51
346.1372507241787
  0
ARC
  5
99C
330
17
100
AcDbEntity
  8
SICHTBAR
100
AcDbCircle
 10
815.4553779423396
 20
787.0362506432698
 30
0.0
 40
50.0
100
AcDbArc
 50
285.2812016323962
 51
344.7187983676038
  0
ARC
  5
99D
330
17
100
AcDbEntity
  8
VERDECKT
100
AcDbCircle
 10
815.4553779423396
 20
787.0362506432698
 30
0.0
 40
56.5
100
AcDbArc
 50
193.4876581022741
 51
256.5123418977243
  0
ARC
  5
99E
330
17
100
AcDbEntity
  8
VERDECKT
100
AcDbCircle
 10
815.4553779423396
 20
787.0362506432698
 30
0.0
 40
55.0
100
AcDbArc
 50
193.8627492758213
 51
256.1372507241756
  0
ARC
  5
99F
330
17
100
AcDbEntity
  8
SICHTBAR
100
AcDbCircle
 10
815.4553779423396
 20
787.0362506432698
 30
0.0
 40
50.0
100
AcDbArc
 50
195.2812016323961
 51
254.7187983676038
  0
LINE
  5
9A0
330
17
100
AcDbEntity
  8
DUENN
100
AcDbLine
 10
802.2775494004653
 20
773.8584221013947
 30
0.0
 11
810.4553779423392
 21
782.0362506432697
 31
0.0
  0
LINE
  5
9A1
330
17
100
AcDbEntity
  8
SICHTBAR
100
AcDbLine
 10
805.4553779423397
 20
797.0362506432707
 30
0.0
 11
805.4553779423397
 21
777.0362506432692
 31
0.0
  0
LINE
  5
9A2
330
17
100
AcDbEntity
  8
DUENN
100
AcDbLine
 10
802.2775494004653
 20
800.2140791851454
 30
0.0
 11
810.4553779423396
 21
792.0362506432698
 31
0.0
  0
LINE
  5
9A3
330
17
100
AcDbEntity
  8
DUENN
100
AcDbLine
 10
820.4553779423392
 20
782.0362506432697
 30
0.0
 11
828.6332064842142
 21
773.8584221013947
 31
0.0
  0
LINE
  5
9A4
330
17
100
AcDbEntity
  8
SICHTBAR
100
AcDbLine
 10
825.4553779423396
 20
796.9034408152387
 30
0.0
 11
825.4553779423396
 21
777.0362506432696
 31
0.0
  0
LINE
  5
9A5
330
17
100
AcDbEntity
  8
DUENN
100
AcDbLine
 10
828.6332064842136
 20
800.214079185145
 30
0.0
 11
820.4553779423395
 21
792.0362506432698
 31
0.0
  0
LINE
  5
9A6
330
17
100
AcDbEntity
  8
SICHTBAR
100
AcDbLine
 10
1356.423951550536
 20
768.0362506432694
 30
0.0
 11
1356.423951550536
 21
544.0362506432702
 31
0.0
  0
LINE
  5
9A7
330
17
100
AcDbEntity
  8
SICHTBAR
100
AcDbLine
 10
1360.423951550536
 20
768.0362506432694
 30
0.0
 11
1360.423951550536
 21
540.0362506432698
 31
0.0
  0
LINE
  5
9A8
330
17
100
AcDbEntity
  8
VERDECKT
100
AcDbLine
 10
1338.423951550537
 20
737.0319594130663
 30
0.0
 11
1340.422489511621
 21
561.8455727397442
 31
0.0
  0
LINE
  5
9A9
330
17
100
AcDbEntity
  8
DUENN
100
AcDbLine
 10
1173.45537794234
 20
569.5362506432696
 30
0.0
 11
1173.45537794234
 21
748.8584221013972
 31
0.0
  0
ARC
  5
9AA
330
17
100
AcDbEntity
  8
DUENN
100
AcDbCircle
 10
1157.95537794234
 20
569.5362506432696
 30
0.0
 40
15.50000000000011
100
AcDbArc
 50
270.0
 51
0.0
  0
ARC
  5
9AB
330
17
100
AcDbEntity
  8
SICHTBAR
100
AcDbCircle
 10
1157.95537794234
 20
569.5362506432696
 30
0.0
 40
20.0
100
AcDbArc
 50
270.0
 51
0.0
  0
LINE
  5
9AC
330
17
100
AcDbEntity
  8
SICHTBAR
100
AcDbLine
 10
1190.45537794234
 20
537.0362506432695
 30
0.0
 11
1177.95537794234
 21
549.5362506432695
 31
0.0
  0
ARC
  5
9AD
330
17
100
AcDbEntity
  8
VERDECKT
100
AcDbCircle
 10
1345.424276754338
 20
561.666381323902
 30
0.0
 40
5.0
100
AcDbArc
 50
180.50848892666
 51
265.6012946450035
  0
LINE
  5
9AE
330
17
100
AcDbEntity
  8
SICHTBAR
100
AcDbLine
 10
1356.423951550536
 20
544.0362506432702
 30
0.0
 11
1327.423951550537
 21
544.0362506432702
 31
0.0
  0
LINE
  5
9AF
330
17
100
AcDbEntity
  8
SICHTBAR
100
AcDbLine
 10
1356.423951550536
 20
544.0362506432697
 30
0.0
 11
1360.423951550536
 21
540.0362506432704
 31
0.0
  0
ARC
  5
9B0
330
17
100
AcDbEntity
  8
DUENN
100
AcDbCircle
 10
1148.45537794234
 20
748.8584221013972
 30
0.0
 40
25.0
100
AcDbArc
 50
0.0
 51
90.0
  0
ARC
  5
9B1
330
17
100
AcDbEntity
  8
SICHTBAR
100
AcDbCircle
 10
1147.955377942339
 20
752.0362506432697
 30
0.0
 40
30.0
100
AcDbArc
 50
0.0
 51
90.0
  0
LINE
  5
9B2
330
17
100
AcDbEntity
  8
VERDECKT
100
AcDbLine
 10
1338.423951550537
 20
768.7662573567839
 30
0.0
 11
1338.423951550537
 21
737.0392223719025
 31
0.0
  0
LINE
  5
9B3
330
17
100
AcDbEntity
  8
VERDECKT
100
AcDbLine
 10
1338.423951550537
 20
737.0392223719025
 30
0.0
 11
1333.605648832173
 21
737.056724829637
 31
0.0
  0
LINE
  5
9B4
330
17
100
AcDbEntity
  8
VERDECKT
100
AcDbLine
 10
1333.58738081197
 20
732.0276681828633
 30
0.0
 11
1327.423951550537
 21
730.5362506432694
 31
0.0
  0
LINE
  5
9B5
330
17
100
AcDbEntity
  8
VERDECKT
100
AcDbLine
 10
1333.605648832173
 20
737.056724829637
 30
0.0
 11
1333.58738081197
 21
732.0276681828633
 31
0.0
  0
LINE
  5
9B6
330
17
100
AcDbEntity
  8
VERDECKT
100
AcDbLine
 10
1338.423951550537
 20
772.9488539740546
 30
0.0
 11
1342.540783889311
 21
773.6876407885196
 31
0.0
  0
ARC
  5
9B7
330
17
100
AcDbEntity
  8
VERDECKT
100
AcDbCircle
 10
1343.423951550537
 20
768.7662573567839
 30
0.0
 40
5.0
100
AcDbArc
 50
100.1737336228051
 51
180.0
  0
LINE
  5
9B8
330
17
100
AcDbEntity
  8
BEMASS
100
AcDbLine
 10
1537.165107864032
 20
1101.416995550925
 30
0.0
 11
1612.158752839557
 21
1101.416995550925
 31
0.0
  0
LINE
  5
9B9
330
17
100
AcDbEntity
  8
SICHTBAR
100
AcDbLine
 10
1540.179178198172
 20
730.5362506432694
 30
0.0
 11
1540.179178198172
 21
544.0362506432693
 31
0.0
  0
LINE
  5
9BA
330
17
100
AcDbEntity
  8
SICHTBAR
100
AcDbLine
 10
1551.179178198173
 20
737.0319594130663
 30
0.0
 11
1553.177716159257
 21
561.8455727397442
 31
0.0
  0
HATCH
  5
9BB
330
17
100
AcDbEntity
  8
SCHRAFF
100
AcDbHatch
 10
0.0
 20
0.0
 30
0.0
210
0.0
220
0.0
230
1.0
  2
ANSI31
 70
     0
 71
     0
 91
        1
 92
        7
 72
     1
 73
     1
 93
       13
 10
1551.179095338421
 20
737.0392226728897
 42
0.0
 10
1546.360875479809
 20
737.0567248296367
 42
0.0
 10
1546.342607459606
 20
732.0276681828631
 42
0.0
 10
1540.179178198172
 20
730.5362506432693
 42
0.0
 10
1540.179178198172
 20
544.0362506432697
 42
0.0
 10
1569.179178198173
 20
544.0362506432697
 42
0.0
 10
1573.179178198172
 20
540.0362506432696
 42
0.0
 10
1598.979178198172
 20
540.0362506432696
 42
0.0
 10
1598.979178198172
 20
541.5362506432702
 42
0.0
 10
1598.979178198172
 20
554.0490329364835
 42
0.0
 10
1598.179178198172
 20
554.100162109341
 42
0.0
 10
1557.925225996325
 20
556.6728512097466
 42
-0.4005069031084638
 10
1553.179540539951
 20
561.685652504123
 42
0.0
 97
        0
 75
     0
 76
     1
 52
0.0
 41
37.5
 77
     0
 78
     1
 53
45.0
 43
0.0
 44
0.0
 45
-3.314563036811941
 46
3.314563036811941
 79
     0
 47
0.4912598444145336
 98
        1
 10
1550.612975303121
 20
672.2518868308416
1001
ACAD
1010
0.0
1020
0.0
1030
0.0
  0
LINE
  5
9BC
330
17
100
AcDbEntity
  8
SICHTBAR
100
AcDbLine
 10
1385.423951550536
 20
537.0362506432697
 30
0.0
 11
1407.423951550537
 21
537.0362506432697
 31
0.0
  0
LINE
  5
9BD
330
17
100
AcDbEntity
  8
VERDECKT
100
AcDbLine
 10
1406.923951550536
 20
539.0362506432697
 30
0.0
 11
1387.923951550536
 21
539.0362506432697
 31
0.0
  0
ARC
  5
9BE
330
17
100
AcDbEntity
  8
VERDECKT
100
AcDbCircle
 10
1386.923951550536
 20
553.5362506432695
 30
0.0
 40
0.5
100
AcDbArc
 50
0.0
 51
90.0
  0
LINE
  5
9BF
330
17
100
AcDbEntity
  8
VERDECKT
100
AcDbLine
 10
1386.923951550536
 20
554.0362506432696
 30
0.0
 11
1386.423951550536
 21
554.0362506432696
 31
0.0
  0
LINE
  5
9C0
330
17
100
AcDbEntity
  8
VERDECKT
100
AcDbLine
 10
1386.423951550536
 20
554.0362506432691
 30
0.0
 11
1385.423951550536
 21
554.100162109341
 31
0.0
  0
ARC
  5
9C1
330
17
100
AcDbEntity
  8
VERDECKT
100
AcDbCircle
 10
1387.923951550536
 20
539.5362506432697
 30
0.0
 40
0.5
100
AcDbArc
 50
180.0
 51
270.0
  0
LINE
  5
9C2
330
17
100
AcDbEntity
  8
VERDECKT
100
AcDbLine
 10
1385.423951550536
 20
537.0362506432697
 30
0.0
 11
1385.423951550536
 21
554.0362506432696
 31
0.0
  0
LINE
  5
9C3
330
17
100
AcDbEntity
  8
VERDECKT
100
AcDbLine
 10
1387.423951550537
 20
539.5362506432697
 30
0.0
 11
1387.423951550537
 21
553.5362506432695
 31
0.0
  0
ARC
  5
9C4
330
17
100
AcDbEntity
  8
SICHTBAR
100
AcDbCircle
 10
1558.179503401974
 20
561.666381323902
 30
0.0
 40
5.0
100
AcDbArc
 50
180.50848892666
 51
265.6012946450035
  0
LINE
  5
9C5
330
17
100
AcDbEntity
  8
SICHTBAR
100
AcDbLine
 10
1598.179178198172
 20
554.100162109341
 30
0.0
 11
1557.79602090755
 21
556.6811088963941
 31
0.0
  0
LINE
  5
9C6
330
17
100
AcDbEntity
  8
SICHTBAR
100
AcDbLine
 10
1600.479178198172
 20
537.03625064327
 30
0.0
 11
1618.929178198172
 21
537.03625064327
 31
0.0
  0
LINE
  5
9C7
330
17
100
AcDbEntity
  8
SICHTBAR
100
AcDbLine
 10
1618.929178198172
 20
539.53625064327
 30
0.0
 11
1608.179178198172
 21
539.53625064327
 31
0.0
  0
LINE
  5
9C8
330
17
100
AcDbEntity
  8
SICHTBAR
100
AcDbLine
 10
1608.179178198172
 20
538.28625064327
 30
0.0
 11
1618.931343401583
 21
538.28625064327
 31
0.0
  0
INSERT
  5
9C9
330
17
100
AcDbEntity
  8
SCHRAFF
100
AcDbBlockReference
  2
*X18
 10
1272.050161760225
 20
701.0264703082245
 30
0.0
 41
-1.0
 50
270.0
  0
LINE
  5
9CA
330
17
100
AcDbEntity
  8
SICHTBAR
100
AcDbLine
 10
1569.179178198172
 20
544.0362506432697
 30
0.0
 11
1573.179178198172
 21
540.0362506432696
 31
0.0
  0
LINE
  5
9CB
330
17
100
AcDbEntity
  8
SICHTBAR
100
AcDbLine
 10
1569.179178198172
 20
544.0362506432697
 30
0.0
 11
1540.179178198172
 21
544.0362506432697
 31
0.0
  0
LINE
  5
9CC
330
17
100
AcDbEntity
  8
SICHTBAR
100
AcDbLine
 10
1598.979178198172
 20
540.0362506432696
 30
0.0
 11
1573.179178198172
 21
540.0362506432696
 31
0.0
  0
ARC
  5
9CD
330
17
100
AcDbEntity
  8
SICHTBAR
100
AcDbCircle
 10
1599.679178198172
 20
553.5362506432695
 30
0.0
 40
0.5
100
AcDbArc
 50
0.0
 51
90.0
  0
LINE
  5
9CE
330
17
100
AcDbEntity
  8
SICHTBAR
100
AcDbLine
 10
1599.679178198172
 20
554.0362506432696
 30
0.0
 11
1599.179178198172
 21
554.0362506432696
 31
0.0
  0
LINE
  5
9CF
330
17
100
AcDbEntity
  8
SICHTBAR
100
AcDbLine
 10
1599.179178198172
 20
554.0362506432691
 30
0.0
 11
1598.179178198172
 21
554.100162109341
 31
0.0
  0
LINE
  5
9D0
330
17
100
AcDbEntity
  8
SICHTBAR
100
AcDbLine
 10
1600.179178198172
 20
553.5362506432701
 30
0.0
 11
1600.179178198172
 21
554.0362506432702
 31
0.0
  0
LINE
  5
9D1
330
17
100
AcDbEntity
  8
SICHTBAR
100
AcDbLine
 10
1598.979178198172
 20
553.5362506432704
 30
0.0
 11
1600.179178198172
 21
553.5362506432701
 31
0.0
  0
LINE
  5
9D2
330
17
100
AcDbEntity
  8
SICHTBAR
100
AcDbLine
 10
1600.179178198172
 20
554.0362506432702
 30
0.0
 11
1600.179178198172
 21
554.23625064327
 31
0.0
  0
ARC
  5
9D3
330
17
100
AcDbEntity
  8
SICHTBAR
100
AcDbCircle
 10
1600.879178198173
 20
538.9862506432701
 30
0.0
 40
0.7
100
AcDbArc
 50
180.0
 51
270.0
  0
ARC
  5
9D4
330
17
100
AcDbEntity
  8
SICHTBAR
100
AcDbCircle
 10
1600.479178198172
 20
538.5362506432705
 30
0.0
 40
1.5
100
AcDbArc
 50
180.0
 51
270.0
  0
LINE
  5
9D5
330
17
100
AcDbEntity
  8
SICHTBAR
100
AcDbLine
 10
1598.979178198172
 20
538.5362506432705
 30
0.0
 11
1598.979178198172
 21
541.5362506432702
 31
0.0
  0
LINE
  5
9D6
330
17
100
AcDbEntity
  8
SICHTBAR
100
AcDbLine
 10
1608.179178198172
 20
539.53625064327
 30
0.0
 11
1608.179178198172
 21
538.28625064327
 31
0.0
  0
LINE
  5
9D7
330
17
100
AcDbEntity
  8
SICHTBAR
100
AcDbLine
 10
1608.179178198172
 20
538.28625064327
 30
0.0
 11
1600.879178198173
 21
538.28625064327
 31
0.0
  0
LINE
  5
9D8
330
17
100
AcDbEntity
  8
SICHTBAR
100
AcDbLine
 10
1600.179178198172
 20
539.5362506432696
 30
0.0
 11
1600.179178198172
 21
553.5362506432695
 31
0.0
  0
LINE
  5
9D9
330
17
100
AcDbEntity
  8
SICHTBAR
100
AcDbLine
 10
1598.979178198172
 20
541.5362506432702
 30
0.0
 11
1598.979178198172
 21
553.5362506432701
 31
0.0
  0
LINE
  5
9DA
330
17
100
AcDbEntity
  8
SICHTBAR
100
AcDbLine
 10
1600.179178198172
 20
538.9862506432701
 30
0.0
 11
1600.179178198172
 21
553.5362506432701
 31
0.0
  0
ARC
  5
9DB
330
17
100
AcDbEntity
  8
SICHTBAR
100
AcDbCircle
 10
1618.929178198172
 20
538.28625064327
 30
0.0
 40
1.25
100
AcDbArc
 50
270.0
 51
90.0
  0
ARC
  5
9DC
330
17
100
AcDbEntity
  8
VERDECKT
100
AcDbCircle
 10
1380.423951550537
 20
786.1135673971991
 30
0.0
 40
5.0
100
AcDbArc
 50
280.1737336228051
 51
0.0
  0
LINE
  5
9DD
330
17
100
AcDbEntity
  8
SICHTBAR
100
AcDbLine
 10
1385.423951550536
 20
774.5362506432692
 30
0.0
 11
1362.599689682148
 21
774.5362506432692
 31
0.0
  0
LINE
  5
9DE
330
17
100
AcDbEntity
  8
SICHTBAR
100
AcDbLine
 10
1365.599689682147
 20
773.0362506432694
 30
0.0
 11
1365.599689682147
 21
768.0362506432694
 31
0.0
  0
LINE
  5
9DF
330
17
100
AcDbEntity
  8
DUENN
100
AcDbLine
 10
1364.349689682147
 20
773.0362506432694
 30
0.0
 11
1364.349689682147
 21
768.0362506432694
 31
0.0
  0
LINE
  5
9E0
330
17
100
AcDbEntity
  8
SICHTBAR
100
AcDbLine
 10
1385.423951550536
 20
799.5362506432698
 30
0.0
 11
1362.599689682148
 21
799.5362506432698
 31
0.0
  0
ARC
  5
9E1
330
17
100
AcDbEntity
  8
VERDECKT
100
AcDbCircle
 10
1380.423951550537
 20
787.9590514756088
 30
0.0
 40
5.0
100
AcDbArc
 50
0.0
 51
79.83369344036723
  0
LINE
  5
9E2
330
17
100
AcDbEntity
  8
VERDECKT
100
AcDbLine
 10
1385.423951550537
 20
787.9590514756088
 30
0.0
 11
1385.423951550537
 21
786.1135673971991
 31
0.0
  0
LINE
  5
9E3
330
17
100
AcDbEntity
  8
SICHTBAR
100
AcDbLine
 10
1551.179178198173
 20
768.7662573567839
 30
0.0
 11
1551.179178198173
 21
737.0392223719022
 31
0.0
  0
LINE
  5
9E4
330
17
100
AcDbEntity
  8
SICHTBAR
100
AcDbLine
 10
1551.179178198173
 20
737.0392223719022
 30
0.0
 11
1546.360875479809
 21
737.0567248296367
 31
0.0
  0
LINE
  5
9E5
330
17
100
AcDbEntity
  8
SICHTBAR
100
AcDbLine
 10
1546.342607459606
 20
732.0276681828633
 30
0.0
 11
1540.179178198172
 21
730.5362506432694
 31
0.0
  0
LINE
  5
9E6
330
17
100
AcDbEntity
  8
SICHTBAR
100
AcDbLine
 10
1546.360875479809
 20
737.0567248296367
 30
0.0
 11
1546.342607459606
 21
732.0276681828633
 31
0.0
  0
LINE
  5
9E7
330
17
100
AcDbEntity
  8
MITTE
100
AcDbLine
 10
1605.51256971809
 20
787.0362506432698
 30
0.0
 11
1538.394613243337
 21
787.0362506432698
 31
0.0
  0
LINE
  5
9E8
102
{ACAD_REACTORS
330
95F
102
}
330
17
100
AcDbEntity
  8
SICHTBAR
100
AcDbLine
 10
1555.549003123744
 20
799.0069130825943
 30
0.0
 11
1592.842134780045
 21
794.0147944647924
 31
0.0
  0
LINE
  5
9E9
102
{ACAD_REACTORS
330
95F
102
}
330
17
100
AcDbEntity
  8
SICHTBAR
100
AcDbLine
 10
1592.841569120307
 20
780.0984829248334
 30
0.0
 11
1555.549003123744
 21
775.1019119804141
 31
0.0
  0
LINE
  5
9EA
330
17
100
AcDbEntity
  8
SICHTBAR
100
AcDbLine
 10
1551.179178198173
 20
773.8715372201252
 30
0.0
 11
1551.179178198173
 21
768.7662573567839
 31
0.0
  0
ARC
  5
9EB
102
{ACAD_REACTORS
330
95F
102
}
330
17
100
AcDbEntity
  8
SICHTBAR
100
AcDbCircle
 10
1556.179178198173
 20
770.1417830127795
 30
0.0
 40
5.0
100
AcDbArc
 50
97.24053050304286
 51
180.0
  0
ARC
  5
9EC
102
{ACAD_REACTORS
330
95F
102
}
330
17
100
AcDbEntity
  8
SICHTBAR
100
AcDbCircle
 10
1592.179178198172
 20
785.0544125315041
 30
0.0
 40
5.0
100
AcDbArc
 50
277.6128206824302
 51
0.0
  0
LINE
  5
9ED
102
{ACAD_REACTORS
330
95F
102
}
330
17
100
AcDbEntity
  8
SICHTBAR
100
AcDbLine
 10
1597.179178198172
 20
784.668508604065
 30
0.0
 11
1597.179178198172
 21
789.4039926824748
 31
0.0
  0
LINE
  5
9EE
102
{ACAD_REACTORS
330
95F
102
}
330
17
100
AcDbEntity
  8
SICHTBAR
100
AcDbLine
 10
1597.179178198172
 20
784.668508604065
 30
0.0
 11
1597.179178198172
 21
789.4039926824748
 31
0.0
  0
LINE
  5
9EF
102
{ACAD_REACTORS
330
95F
102
}
330
17
100
AcDbEntity
  8
SICHTBAR
100
AcDbLine
 10
1597.179178198172
 20
788.0544125315043
 30
0.0
 11
1597.179178198172
 21
786.054412531504
 31
0.0
  0
ARC
  5
9F0
102
{ACAD_REACTORS
330
95F
102
}
330
17
100
AcDbEntity
  8
SICHTBAR
100
AcDbCircle
 10
1592.179178198172
 20
789.0544125315042
 30
0.0
 40
5.0
100
AcDbArc
 50
0.0
 51
82.38717931756974
  0
LINE
  5
9F1
102
{ACAD_REACTORS
330
95F
102
}
330
17
100
AcDbEntity
  8
SICHTBAR
100
AcDbLine
 10
1597.179178198172
 20
789.0544125315042
 30
0.0
 11
1597.179178198172
 21
785.0544125315041
 31
0.0
  0
LINE
  5
9F2
330
17
100
AcDbEntity
  8
SICHTBAR
100
AcDbLine
 10
1385.423951550536
 20
1034.03625064327
 30
0.0
 11
1360.423951550536
 21
1034.03625064327
 31
0.0
  0
LINE
  5
9F3
330
17
100
AcDbEntity
  8
SICHTBAR
100
AcDbLine
 10
1385.423951550536
 20
801.03625064327
 30
0.0
 11
1361.349689682148
 21
801.03625064327
 31
0.0
  0
LINE
  5
9F4
330
17
100
AcDbEntity
  8
VERDECKT
100
AcDbLine
 10
1385.423951550536
 20
1019.972339074948
 30
0.0
 11
1345.040469056113
 21
1017.391367374468
 31
0.0
  0
LINE
  5
9F5
330
17
100
AcDbEntity
  8
SICHTBAR
100
AcDbLine
 10
1385.423951550536
 20
806.0362506432696
 30
0.0
 11
1345.423951550536
 21
806.0362506432696
 31
0.0
  0
LINE
  5
9F6
330
17
100
AcDbEntity
  8
DUENN
100
AcDbLine
 10
1157.95537794234
 20
1024.02128184776
 30
0.0
 11
843.6332064842122
 21
1024.02128184776
 31
0.0
  0
LINE
  5
9F7
330
17
100
AcDbEntity
  8
SICHTBAR
100
AcDbLine
 10
1177.955377942339
 20
1028.52128184776
 30
0.0
 11
840.4553779423396
 21
1028.52128184776
 31
0.0
  0
ARC
  5
9F8
330
17
100
AcDbEntity
  8
SICHTBAR
100
AcDbCircle
 10
840.4553779423396
 20
1008.52128184776
 30
0.0
 40
20.0
100
AcDbArc
 50
90.0
 51
180.0
  0
LINE
  5
9F9
330
17
100
AcDbEntity
  8
SICHTBAR
100
AcDbLine
 10
840.4553779423396
 20
1028.52128184776
 30
0.0
 11
783.7775494004674
 21
1028.52128184776
 31
0.0
  0
ARC
  5
9FA
330
17
100
AcDbEntity
  8
SICHTBAR
100
AcDbCircle
 10
840.4553779423403
 20
1008.52128184776
 30
0.0
 40
20.0
100
AcDbArc
 50
90.0
 51
180.0
  0
ARC
  5
9FB
330
17
100
AcDbEntity
  8
SICHTBAR
100
AcDbCircle
 10
790.4553779423395
 20
1008.52128184776
 30
0.0
 40
20.0
100
AcDbArc
 50
0.0
 51
90.0
  0
ARC
  5
9FC
330
17
100
AcDbEntity
  8
DUENN
100
AcDbCircle
 10
787.2775494004676
 20
1009.021281847759
 30
0.0
 40
15.0
100
AcDbArc
 50
0.0
 51
90.0
  0
ARC
  5
9FD
330
17
100
AcDbEntity
  8
DUENN
100
AcDbCircle
 10
843.6332064842122
 20
1009.021281847759
 30
0.0
 40
15.0
100
AcDbArc
 50
90.0
 51
180.0
  0
INSERT
  5
9FE
330
17
100
AcDbEntity
  8
BEMASS
100
AcDbBlockReference
 66
     1
  2
SCHNITT
 10
815.4553779423396
 20
1060.910696105073
 30
0.0
 41
2.5
 42
2.5
 43
2.5
  0
ATTRIB
  5
9FF
330
9FE
100
AcDbEntity
  8
TEXT50
100
AcDbText
 10
820.8089835370493
 20
1054.657984202242
 30
0.0
 40
12.5
  1
C
 41
0.8
  7
TEXT50
100
AcDbAttribute
  2
SCHNITTB
 70
     0
  0
ATTRIB
  5
A00
330
9FE
100
AcDbEntity
  8
PN
100
AcDbText
 10
815.4553779423396
 20
1060.910696105073
 30
0.0
 40
12.5
  1
PN000000
 41
0.8
  7
TEXT50
100
AcDbAttribute
  2
PN
 70
     1
  0
SEQEND
  5
A01
330
9FE
100
AcDbEntity
  8
BEMASS
  0
LINE
  5
A02
330
17
100
AcDbEntity
  8
SICHTBAR
100
AcDbLine
 10
1356.423951550536
 20
1030.03625064327
 30
0.0
 11
1356.423951550536
 21
806.0362506432696
 31
0.0
  0
LINE
  5
A03
330
17
100
AcDbEntity
  8
SICHTBAR
100
AcDbLine
 10
1360.423951550536
 20
1034.03625064327
 30
0.0
 11
1360.423951550536
 21
806.0362506432696
 31
0.0
  0
LINE
  5
A04
330
17
100
AcDbEntity
  8
VERDECKT
100
AcDbLine
 10
1338.423919322054
 20
837.0369105111247
 30
0.0
 11
1340.424979313674
 21
1012.507468390821
 31
0.0
  0
LINE
  5
A05
330
17
100
AcDbEntity
  8
DUENN
100
AcDbLine
 10
1173.455377942339
 20
825.2140791851426
 30
0.0
 11
1173.45537794234
 21
1008.52128184776
 31
0.0
  0
LINE
  5
A06
330
17
100
AcDbEntity
  8
VERDECKT
100
AcDbLine
 10
1333.623705756161
 20
842.0362506432697
 30
0.0
 11
1333.605609258708
 21
837.0544129955399
 31
0.0
  0
LINE
  5
A07
330
17
100
AcDbEntity
  8
VERDECKT
100
AcDbLine
 10
1338.423951550537
 20
837.0369103940552
 30
0.0
 11
1338.423951550537
 21
805.3018437294346
 31
0.0
  0
LINE
  5
A08
330
17
100
AcDbEntity
  8
VERDECKT
100
AcDbLine
 10
1338.423951550537
 20
837.0369103940552
 30
0.0
 11
1333.605609258708
 21
837.0544129955399
 31
0.0
  0
LINE
  5
A09
330
17
100
AcDbEntity
  8
VERDECKT
100
AcDbLine
 10
1333.623705756161
 20
842.0362506432697
 30
0.0
 11
1327.423951550537
 21
843.5362506432696
 31
0.0
  0
ARC
  5
A0A
330
17
100
AcDbEntity
  8
DUENN
100
AcDbCircle
 10
1157.95537794234
 20
1008.52128184776
 30
0.0
 40
15.50000000000011
100
AcDbArc
 50
0.0
 51
90.0
  0
ARC
  5
A0B
330
17
100
AcDbEntity
  8
SICHTBAR
100
AcDbCircle
 10
1157.95537794234
 20
1008.52128184776
 30
0.0
 40
20.0
100
AcDbArc
 50
0.0
 51
90.0
  0
LINE
  5
A0C
330
17
100
AcDbEntity
  8
SICHTBAR
100
AcDbLine
 10
1190.45537794234
 20
1041.021281847759
 30
0.0
 11
1177.95537794234
 21
1028.52128184776
 31
0.0
  0
ARC
  5
A0D
330
17
100
AcDbEntity
  8
VERDECKT
100
AcDbCircle
 10
1345.423951550536
 20
1012.406094946959
 30
0.0
 40
5.0
100
AcDbArc
 50
94.39870535499652
 51
180.0
  0
LINE
  5
A0E
330
17
100
AcDbEntity
  8
SICHTBAR
100
AcDbLine
 10
1356.423951550536
 20
1030.03625064327
 30
0.0
 11
1327.423951550537
 21
1030.036250643269
 31
0.0
  0
LINE
  5
A0F
330
17
100
AcDbEntity
  8
SICHTBAR
100
AcDbLine
 10
1360.423951550536
 20
1034.03625064327
 30
0.0
 11
1356.423951550536
 21
1030.036250643269
 31
0.0
  0
LINE
  5
A10
330
17
100
AcDbEntity
  8
VERDECKT
100
AcDbLine
 10
1173.455377942339
 20
1284.855336257014
 30
0.0
 11
819.3780611884095
 21
1284.855336257014
 31
0.0
  0
LINE
  5
A11
330
17
100
AcDbEntity
  8
VERDECKT
100
AcDbLine
 10
865.4524062137069
 20
1237.855336257014
 30
0.0
 11
1165.696983619127
 21
1237.855336257014
 31
0.0
  0
LINE
  5
A12
330
17
100
AcDbEntity
  8
VERDECKT
100
AcDbLine
 10
825.4553779423396
 20
1283.855336257014
 30
0.0
 11
1173.955377942339
 21
1283.855336257014
 31
0.0
  0
LINE
  5
A13
330
17
100
AcDbEntity
  8
MITTE
100
AcDbLine
 10
815.4553779423396
 20
1309.855336257014
 30
0.0
 11
815.4553779423396
 21
1219.243489393742
 31
0.0
  0
LINE
  5
A14
330
17
100
AcDbEntity
  8
VERDECKT
100
AcDbLine
 10
833.7253712288253
 20
1237.855336257014
 30
0.0
 11
865.4524062137069
 21
1237.855336257014
 31
0.0
  0
LINE
  5
A15
330
17
100
AcDbEntity
  8
VERDECKT
100
AcDbLine
 10
765.4372155900695
 20
1233.036993965186
 30
0.0
 11
865.4457980504759
 21
1233.036993965186
 31
0.0
  0
LINE
  5
A16
330
17
100
AcDbEntity
  8
VERDECKT
100
AcDbLine
 10
765.4547181915542
 20
1237.855336257014
 30
0.0
 11
797.1897848561744
 21
1237.855336257014
 31
0.0
  0
LINE
  5
A17
330
17
100
AcDbEntity
  8
VERDECKT
100
AcDbLine
 10
760.4553779423396
 20
1233.055090462639
 30
0.0
 11
758.9553779423396
 21
1226.855336257014
 31
0.0
  0
LINE
  5
A18
330
17
100
AcDbEntity
  8
VERDECKT
100
AcDbLine
 10
760.4553779423396
 20
1233.055090462639
 30
0.0
 11
765.4372155900695
 21
1233.036993965186
 31
0.0
  0
LINE
  5
A19
330
17
100
AcDbEntity
  8
VERDECKT
100
AcDbLine
 10
765.4547181915542
 20
1237.855336257014
 30
0.0
 11
765.4372155900695
 21
1233.036993965186
 31
0.0
  0
LINE
  5
A1A
330
17
100
AcDbEntity
  8
VERDECKT
100
AcDbLine
 10
802.1112827286778
 20
1241.972806545929
 30
0.0
 11
809.6110792374972
 21
1281.737865968098
 31
0.0
  0
LINE
  5
A1B
330
17
100
AcDbEntity
  8
VERDECKT
100
AcDbLine
 10
828.8039877970895
 20
1241.972168595788
 30
0.0
 11
821.2994446201461
 21
1281.73850391824
 31
0.0
  0
LINE
  5
A1C
330
17
100
AcDbEntity
  8
VERDECKT
100
AcDbLine
 10
797.1897848561744
 20
1237.855336257014
 30
0.0
 11
833.7253712288253
 21
1237.855336257014
 31
0.0
  0
LINE
  5
A1D
330
17
100
AcDbEntity
  8
VERDECKT
100
AcDbLine
 10
801.3729323405211
 20
1237.855336257014
 30
0.0
 11
802.1112827286778
 21
1241.972806545929
 31
0.0
  0
ARC
  5
A1E
330
17
100
AcDbEntity
  8
VERDECKT
100
AcDbCircle
 10
797.1897848561744
 20
1242.855336257014
 30
0.0
 40
5.0
100
AcDbArc
 50
270.0
 51
349.8336934403657
  0
LINE
  5
A1F
330
17
100
AcDbEntity
  8
VERDECKT
100
AcDbLine
 10
829.5427746115546
 20
1237.855336257014
 30
0.0
 11
828.8039877970895
 21
1241.972168595788
 31
0.0
  0
ARC
  5
A20
330
17
100
AcDbEntity
  8
VERDECKT
100
AcDbCircle
 10
833.7253712288253
 20
1242.855336257014
 30
0.0
 40
5.0
100
AcDbArc
 50
190.1737336228039
 51
270.0
  0
ARC
  5
A21
330
17
100
AcDbEntity
  8
VERDECKT
100
AcDbCircle
 10
816.3780611884099
 20
1280.855336257014
 30
0.0
 40
5.0
100
AcDbArc
 50
10.17373362280392
 51
90.0
  0
LINE
  5
A22
330
17
100
AcDbEntity
  8
VERDECKT
100
AcDbLine
 10
814.5325771100004
 20
1285.855336257014
 30
0.0
 11
816.3780611884099
 21
1285.855336257014
 31
0.0
  0
LINE
  5
A23
330
17
100
AcDbEntity
  8
MITTE
100
AcDbLine
 10
805.4553779423397
 20
1284.855336257014
 30
0.0
 11
805.4553779423397
 21
1283.855336257014
 31
0.0
  0
ARC
  5
A24
330
17
100
AcDbEntity
  8
VERDECKT
100
AcDbCircle
 10
814.5325771100004
 20
1280.855336257014
 30
0.0
 40
5.0
100
AcDbArc
 50
90.0
 51
169.8336934403657
  0
LINE
  5
A25
330
17
100
AcDbEntity
  8
MITTE
100
AcDbLine
 10
825.4553779423394
 20
1284.855336257014
 30
0.0
 11
825.4553779423394
 21
1283.855336257014
 31
0.0
  0
LINE
  5
A26
330
17
100
AcDbEntity
  8
VERDECKT
100
AcDbLine
 10
870.4639604027457
 20
1233.018765518447
 30
0.0
 11
871.9553779423396
 21
1226.855336257014
 31
0.0
  0
LINE
  5
A27
330
17
100
AcDbEntity
  8
VERDECKT
100
AcDbLine
 10
865.4524062137069
 20
1237.855336257014
 30
0.0
 11
865.4349037559724
 21
1233.03703353865
 31
0.0
  0
LINE
  5
A28
330
17
100
AcDbEntity
  8
VERDECKT
100
AcDbLine
 10
865.4349037559724
 20
1233.03703353865
 30
0.0
 11
870.4639604027457
 21
1233.018765518447
 31
0.0
  0
LINE
  5
A29
330
17
100
AcDbEntity
  8
SICHTBAR
100
AcDbLine
 10
1190.455377942339
 20
1306.855336257014
 30
0.0
 11
1190.455377942339
 21
1285.855336257014
 31
0.0
  0
LINE
  5
A2A
330
17
100
AcDbEntity
  8
VERDECKT
100
AcDbLine
 10
1188.455377942339
 20
1306.355336257014
 30
0.0
 11
1188.455377942339
 21
1287.355336257014
 31
0.0
  0
LINE
  5
A2B
330
17
100
AcDbEntity
  8
VERDECKT
100
AcDbLine
 10
1173.391466476268
 20
1284.855336257014
 30
0.0
 11
1170.686803107859
 21
1242.536429578055
 31
0.0
  0
LINE
  5
A2C
330
17
100
AcDbEntity
  8
SICHTBAR
100
AcDbLine
 10
1182.455377942339
 20
1255.855336257014
 30
0.0
 11
1182.455377942339
 21
1226.855336257014
 31
0.0
  0
ARC
  5
A2D
330
17
100
AcDbEntity
  8
VERDECKT
100
AcDbCircle
 10
1165.696983619127
 20
1242.855336257014
 30
0.0
 40
5.0
100
AcDbArc
 50
270.0
 51
356.3431163806982
  0
LINE
  5
A2E
330
17
100
AcDbEntity
  8
SICHTBAR
100
AcDbLine
 10
1186.455377942339
 20
1284.855336257014
 30
0.0
 11
1186.455377942339
 21
1259.855336257014
 31
0.0
  0
LINE
  5
A2F
330
17
100
AcDbEntity
  8
SICHTBAR
100
AcDbLine
 10
1186.455377942339
 20
1259.855336257014
 30
0.0
 11
1182.455377942339
 21
1255.855336257014
 31
0.0
  0
ARC
  5
A30
330
17
100
AcDbEntity
  8
VERDECKT
100
AcDbCircle
 10
1187.955377942339
 20
1287.355336257014
 30
0.0
 40
0.5
100
AcDbArc
 50
270.0
 51
0.0
  0
ARC
  5
A31
330
17
100
AcDbEntity
  8
SICHTBAR
100
AcDbCircle
 10
1189.455377942339
 20
1285.855336257014
 30
0.0
 40
1.0
100
AcDbArc
 50
270.0
 51
0.0
  0
ARC
  5
A32
330
17
100
AcDbEntity
  8
VERDECKT
100
AcDbCircle
 10
1173.955377942339
 20
1286.355336257014
 30
0.0
 40
0.5
100
AcDbArc
 50
90.0
 51
180.0
  0
LINE
  5
A33
330
17
100
AcDbEntity
  8
VERDECKT
100
AcDbLine
 10
1173.455377942339
 20
1286.355336257014
 30
0.0
 11
1173.455377942339
 21
1285.855336257014
 31
0.0
  0
LINE
  5
A34
330
17
100
AcDbEntity
  8
VERDECKT
100
AcDbLine
 10
1173.45537794234
 20
1285.855336257014
 30
0.0
 11
1173.391466476268
 21
1284.855336257014
 31
0.0
  0
LINE
  5
A35
330
17
100
AcDbEntity
  8
VERDECKT
100
AcDbLine
 10
1187.955377942339
 20
1286.855336257014
 30
0.0
 11
1173.955377942339
 21
1286.855336257014
 31
0.0
  0
TEXT
  5
A36
330
17
100
AcDbEntity
  8
TEXT50
100
AcDbText
 10
1538.161949101901
 20
1104.122819834071
 30
0.0
 40
12.5
  1
Schnitt C-C
 41
0.8
  7
TEXT50
100
AcDbText
  0
LINE
  5
A37
102
{ACAD_REACTORS
330
AD7
102
}
330
17
100
AcDbEntity
  8
SICHTBAR
100
AcDbLine
 10
1540.179178198172
 20
1030.036250643269
 30
0.0
 11
1540.179178198172
 21
843.5362506432696
 31
0.0
  0
LINE
  5
A38
102
{ACAD_REACTORS
330
AD7
102
}
330
17
100
AcDbEntity
  8
SICHTBAR
100
AcDbLine
 10
1551.17914596969
 20
837.0369105111247
 30
0.0
 11
1553.18020596131
 21
1012.507468390821
 31
0.0
  0
LINE
  5
A3A
330
17
100
AcDbEntity
  8
SICHTBAR
100
AcDbLine
 10
1365.599689682147
 20
806.0362506432696
 30
0.0
 11
1365.599689682147
 21
801.03625064327
 31
0.0
  0
LINE
  5
A3B
330
17
100
AcDbEntity
  8
DUENN
100
AcDbLine
 10
1364.349689682147
 20
806.0362506432696
 30
0.0
 11
1364.349689682147
 21
801.03625064327
 31
0.0
  0
LINE
  5
A3C
102
{ACAD_REACTORS
330
AD7
102
}
330
17
100
AcDbEntity
  8
SICHTBAR
100
AcDbLine
 10
1546.378932403797
 20
842.0362506432697
 30
0.0
 11
1546.360835906345
 21
837.0544129955399
 31
0.0
  0
LINE
  5
A3D
330
17
100
AcDbEntity
  8
SICHTBAR
100
AcDbLine
 10
1551.179178198173
 20
837.036910394055
 30
0.0
 11
1551.179178198173
 21
805.3018437294346
 31
0.0
  0
LINE
  5
A3E
102
{ACAD_REACTORS
330
AD7
102
}
330
17
100
AcDbEntity
  8
SICHTBAR
100
AcDbLine
 10
1551.179178198173
 20
837.036910394055
 30
0.0
 11
1546.360835906345
 21
837.0544129955399
 31
0.0
  0
LINE
  5
A3F
102
{ACAD_REACTORS
330
AD7
102
}
330
17
100
AcDbEntity
  8
SICHTBAR
100
AcDbLine
 10
1546.378932403797
 20
842.0362506432697
 30
0.0
 11
1540.179178198172
 21
843.5362506432696
 31
0.0
  0
TEXT
  5
A40
330
17
100
AcDbEntity
  8
TEXT20
100
AcDbText
 10
1365.943037267022
 20
1000.793998512644
 30
0.0
 40
10.0
  1
75x50
 50
270.0
 41
0.8
  7
FUTURA
100
AcDbText
  0
LINE
  5
A41
330
17
100
AcDbEntity
  8
SICHTBAR
100
AcDbLine
 10
1385.423951550536
 20
1037.03625064327
 30
0.0
 11
1407.423951550537
 21
1037.03625064327
 31
0.0
  0
LINE
  5
A42
330
17
100
AcDbEntity
  8
VERDECKT
100
AcDbLine
 10
1406.923951550536
 20
1035.03625064327
 30
0.0
 11
1387.923951550536
 21
1035.03625064327
 31
0.0
  0
LINE
  5
A43
330
17
100
AcDbEntity
  8
VERDECKT
100
AcDbLine
 10
1385.423951550536
 20
1037.03625064327
 30
0.0
 11
1385.423951550536
 21
1019.972339074949
 31
0.0
  0
LINE
  5
A44
330
17
100
AcDbEntity
  8
VERDECKT
100
AcDbLine
 10
1387.423951550537
 20
1034.53625064327
 30
0.0
 11
1387.423951550537
 21
1020.53625064327
 31
0.0
  0
ARC
  5
A45
330
17
100
AcDbEntity
  8
VERDECKT
100
AcDbCircle
 10
1386.923951550536
 20
1020.53625064327
 30
0.0
 40
0.5
100
AcDbArc
 50
270.0
 51
0.0
  0
LINE
  5
A46
330
17
100
AcDbEntity
  8
VERDECKT
100
AcDbLine
 10
1386.923951550536
 20
1020.03625064327
 30
0.0
 11
1386.423951550536
 21
1020.03625064327
 31
0.0
  0
LINE
  5
A47
330
17
100
AcDbEntity
  8
VERDECKT
100
AcDbLine
 10
1386.423951550536
 20
1020.03625064327
 30
0.0
 11
1385.423951550536
 21
1019.972339074949
 31
0.0
  0
ARC
  5
A48
330
17
100
AcDbEntity
  8
VERDECKT
100
AcDbCircle
 10
1387.923951550536
 20
1034.53625064327
 30
0.0
 40
0.5
100
AcDbArc
 50
90.0
 51
180.0
  0
LINE
  5
A49
330
17
100
AcDbEntity
  8
VERDECKT
100
AcDbLine
 10
1387.423951550537
 20
1037.03625064327
 30
0.0
 11
1385.423951550536
 21
1037.03625064327
 31
0.0
  0
INSERT
  5
A4A
330
17
100
AcDbEntity
  8
SCHRAFF
100
AcDbBlockReference
  2
*X18
 10
1272.050161760225
 20
873.0460309783151
 30
0.0
 50
270.0
  0
LINE
  5
A4B
330
17
100
AcDbEntity
  8
SICHTBAR
100
AcDbLine
 10
1608.179178198172
 20
1035.786250643269
 30
0.0
 11
1618.931343401583
 21
1035.786250643269
 31
0.0
  0
LINE
  5
A4C
330
17
100
AcDbEntity
  8
SICHTBAR
100
AcDbLine
 10
1618.929178198172
 20
1034.536250643269
 30
0.0
 11
1608.179178198172
 21
1034.536250643269
 31
0.0
  0
LINE
  5
A4D
330
17
100
AcDbEntity
  8
SICHTBAR
100
AcDbLine
 10
1600.479178198172
 20
1037.036250643269
 30
0.0
 11
1618.929178198172
 21
1037.036250643269
 31
0.0
  0
LINE
  5
A4E
102
{ACAD_REACTORS
330
AD7
102
}
330
17
100
AcDbEntity
  8
SICHTBAR
100
AcDbLine
 10
1569.179178198172
 20
1030.03625064327
 30
0.0
 11
1573.179178198172
 21
1034.03625064327
 31
0.0
  0
LINE
  5
A4F
102
{ACAD_REACTORS
330
AD7
102
}
330
17
100
AcDbEntity
  8
SICHTBAR
100
AcDbLine
 10
1599.179178198172
 20
1020.03625064327
 30
0.0
 11
1557.795695703748
 21
1017.391367374468
 31
0.0
  0
ARC
  5
A51
102
{ACAD_REACTORS
330
AD7
102
}
330
17
100
AcDbEntity
  8
SICHTBAR
100
AcDbCircle
 10
1558.179178198172
 20
1012.406094946959
 30
0.0
 40
5.0
100
AcDbArc
 50
94.39870535499652
 51
180.0
  0
LINE
  5
A53
102
{ACAD_REACTORS
330
AD7
102
}
330
17
100
AcDbEntity
  8
SICHTBAR
100
AcDbLine
 10
1569.179178198172
 20
1030.03625064327
 30
0.0
 11
1540.179178198172
 21
1030.03625064327
 31
0.0
  0
LINE
  5
A54
330
17
100
AcDbEntity
  8
SICHTBAR
100
AcDbLine
 10
1600.179178198172
 20
1035.086250643269
 30
0.0
 11
1600.179178198172
 21
1020.536250643269
 31
0.0
  0
LINE
  5
A55
102
{ACAD_REACTORS
330
AD7
102
}
330
17
100
AcDbEntity
  8
SICHTBAR
100
AcDbLine
 10
1598.979178198172
 20
1032.536250643269
 30
0.0
 11
1598.979178198172
 21
1020.536250643269
 31
0.0
  0
LINE
  5
A56
330
17
100
AcDbEntity
  8
SICHTBAR
100
AcDbLine
 10
1600.179178198172
 20
1020.036250643269
 30
0.0
 11
1600.179178198172
 21
1019.836250643269
 31
0.0
  0
LINE
  5
A57
102
{ACAD_REACTORS
330
AD7
102
}
330
17
100
AcDbEntity
  8
SICHTBAR
100
AcDbLine
 10
1598.979178198172
 20
1020.536250643269
 30
0.0
 11
1600.179178198172
 21
1020.536250643269
 31
0.0
  0
LINE
  5
A58
330
17
100
AcDbEntity
  8
SICHTBAR
100
AcDbLine
 10
1600.179178198172
 20
1020.536250643269
 30
0.0
 11
1600.179178198172
 21
1020.036250643269
 31
0.0
  0
LINE
  5
A59
102
{ACAD_REACTORS
330
AD7
102
}
330
17
100
AcDbEntity
  8
SICHTBAR
100
AcDbLine
 10
1598.179178198172
 20
1034.03625064327
 30
0.0
 11
1573.179178198172
 21
1034.03625064327
 31
0.0
  0
LINE
  5
A5A
102
{ACAD_REACTORS
330
AD7
102
}
330
17
100
AcDbEntity
  8
SICHTBAR
100
AcDbLine
 10
1598.979178198172
 20
1034.03625064327
 30
0.0
 11
1579.410358885071
 21
1034.03625064327
 31
0.0
  0
LINE
  5
A5B
330
17
100
AcDbEntity
  8
SICHTBAR
100
AcDbLine
 10
1608.179178198172
 20
1035.786250643269
 30
0.0
 11
1600.879178198173
 21
1035.786250643269
 31
0.0
  0
LINE
  5
A5C
330
17
100
AcDbEntity
  8
SICHTBAR
100
AcDbLine
 10
1608.179178198172
 20
1034.536250643269
 30
0.0
 11
1608.179178198172
 21
1035.786250643269
 31
0.0
  0
LINE
  5
A5D
330
17
100
AcDbEntity
  8
SICHTBAR
100
AcDbLine
 10
1598.979178198172
 20
1035.536250643269
 30
0.0
 11
1598.979178198172
 21
1034.03625064327
 31
0.0
  0
ARC
  5
A5E
330
17
100
AcDbEntity
  8
SICHTBAR
100
AcDbCircle
 10
1600.479178198172
 20
1035.536250643269
 30
0.0
 40
1.5
100
AcDbArc
 50
90.0
 51
180.0
  0
ARC
  5
A5F
330
17
100
AcDbEntity
  8
SICHTBAR
100
AcDbCircle
 10
1600.879178198173
 20
1035.086250643269
 30
0.0
 40
0.7
100
AcDbArc
 50
90.0
 51
180.0
  0
LINE
  5
A60
102
{ACAD_REACTORS
330
AD7
102
}
330
17
100
AcDbEntity
  8
SICHTBAR
100
AcDbLine
 10
1598.979178198172
 20
1034.03625064327
 30
0.0
 11
1598.979178198172
 21
1032.536250643269
 31
0.0
  0
ARC
  5
A61
330
17
100
AcDbEntity
  8
SICHTBAR
100
AcDbCircle
 10
1618.929178198172
 20
1035.786250643269
 30
0.0
 40
1.25
100
AcDbArc
 50
270.0
 51
90.0
  0
DIMENSION
  5
A62
330
17
100
AcDbEntity
  8
AM_5
100
AcDbDimension
  2
*D23
 10
1190.455377942339
 20
1366.855336257014
 30
0.0
 11
815.4553779423395
 21
1376.230336257014
 31
0.0
 70
    32
  1
<>
 71
     5
 42
749.9999999999999
  3
ISO-25
100
AcDbAlignedDimension
 13
440.4553779423395
 23
1306.855336257014
 33
0.0
 14
1190.455377942339
 24
1306.855336257014
 34
0.0
 50
180.0
100
AcDbRotatedDimension
1001
GENIUS_GENDTOL_13
1000

1000
h7
1000

1040
0.0
  0
DIMENSION
  5
A63
330
17
100
AcDbEntity
  8
AM_5
100
AcDbDimension
  2
*D24
 10
1467.423951550537
 20
1037.03625064327
 30
0.0
 11
1458.048951550537
 21
787.0362506432699
 31
0.0
 70
    32
  1
<>
 71
     5
 42
499.9999999999999
  3
ISO-25
100
AcDbAlignedDimension
 13
1407.423951550537
 23
537.0362506432697
 33
0.0
 14
1407.423951550537
 24
1037.03625064327
 34
0.0
 50
90.0
100
AcDbRotatedDimension
1001
GENIUS_GENDTOL_13
1000

1000
h7
1000

1040
0.0
  0
DIMENSION
  5
A64
330
17
100
AcDbEntity
  8
AM_5
100
AcDbDimension
  2
*D25
 10
1250.455377942339
 20
1306.855336257014
 30
0.0
 11
1241.080377942339
 21
1266.855336257014
 31
0.0
 70
    32
  1
<>
 71
     5
 42
80.0
  3
ISO-25
100
AcDbAlignedDimension
 13
1182.455377942339
 23
1226.855336257014
 33
0.0
 14
1190.455377942339
 24
1306.855336257014
 34
0.0
 50
90.0
100
AcDbRotatedDimension
1001
GENIUS_GENDTOL_13
1000

1000
h7
1000

1040
0.0
  0
HATCH
  5
AD7
330
17
100
AcDbEntity
  8
SCHRAFF
100
AcDbHatch
 10
0.0
 20
0.0
 30
0.0
210
0.0
220
0.0
230
1.0
  2
ANSI31
 70
     0
 71
     1
 91
        1
 92
        7
 72
     1
 73
     1
 93
       15
 10
1557.795695703763
 20
1017.391367374469
 42
0.0
 10
1599.179178198172
 20
1020.03625064327
 42
0.0
 10
1599.179178198172
 20
1020.536250643269
 42
0.0
 10
1598.979178198172
 20
1020.536250643269
 42
0.0
 10
1598.979178198172
 20
1032.536250643269
 42
0.0
 10
1598.979178198172
 20
1034.03625064327
 42
0.0
 10
1579.410358885071
 20
1034.03625064327
 42
0.0
 10
1573.179178198172
 20
1034.03625064327
 42
0.0
 10
1569.179178198172
 20
1030.03625064327
 42
0.0
 10
1540.179178198172
 20
1030.03625064327
 42
0.0
 10
1540.179178198172
 20
843.5362506432696
 42
0.0
 10
1546.378932403797
 20
842.0362506432697
 42
0.0
 10
1546.360835906345
 20
837.0544129955399
 42
0.0
 10
1551.17914596969
 20
837.0369105111247
 42
0.0
 10
1553.179194211321
 20
1012.418749244054
 42
-0.3911725194067123
 97
       15
330
A4F
330
968
330
A57
330
A55
330
A60
330
A5A
330
A59
330
A4E
330
A53
330
A37
330
A3F
330
A3C
330
A3E
330
A38
330
A51
 75
     0
 76
     1
 52
0.0
 41
37.5
 77
     0
 78
     1
 53
45.0
 43
0.0
 44
0.0
 45
-3.314563036811941
 46
3.314563036811941
 79
     0
 47
0.2862027569827521
 98
        1
 10
1546.851425564321
 20
1014.853177404593
1001
ACAD
1010
0.0
1020
0.0
1030
0.0
  0
INSERT
  5
B64
330
17
100
AcDbEntity
  8
AM_BOR
100
AcDbBlockReference
 66
     1
  2
SF_WEB
 10
2070.0
 20
30.0
 30
0.0
 41
5.0
 42
5.0
 43
5.0
  0
ATTRIB
  5
B65
330
B64
100
AcDbEntity
  8
TEXT35
100
AcDbText
 10
1110.142788243675
 20
124.065215433708
 30
0.0
 40
15.0
  1

 41
0.8000000000000001
  7
TEXT35
100
AcDbAttribute
  2
F2
 70
     0
  0
ATTRIB
  5
B66
330
B64
100
AcDbEntity
  8
TEXT35
100
AcDbText
 10
1110.142788243675
 20
101.9684241262067
 30
0.0
 40
15.0
  1

 41
0.8000000000000001
  7
TEXT35
100
AcDbAttribute
  2
F3
 70
     0
  0
ATTRIB
  5
B67
330
B64
100
AcDbEntity
  8
TEXT25
100
AcDbText
 10
1754.650819982057
 20
38.90733732892428
 30
0.0
 40
12.5
  1

 41
0.8
  7
TEXT25
100
AcDbAttribute
  2
F11
 70
     0
  0
ATTRIB
  5
B68
330
B64
100
AcDbEntity
  8
TEXT25
100
AcDbText
 10
1565.904039771599
 20
112.6962326396464
 30
0.0
 40
10.0
  1

 41
0.8
  7
TEXT20
100
AcDbAttribute
  2
F53
 70
     0
  0
ATTRIB
  5
B69
330
B64
100
AcDbEntity
  8
TEXT25
100
AcDbText
 10
1566.070135833568
 20
134.0752351233225
 30
0.0
 40
10.0
  1

 41
0.8
  7
TEXT20
100
AcDbAttribute
  2
F9
 70
     0
  0
ATTRIB
  5
B6A
330
B64
100
AcDbEntity
  8
TEXT25
100
AcDbText
 10
1630.422976814713
 20
113.8179318911811
 30
0.0
 40
10.0
  1

 41
0.8
  7
TEXT20
100
AcDbAttribute
  2
F52
 70
     0
  0
ATTRIB
  5
B6B
330
B64
100
AcDbEntity
  8
TEXT35
100
AcDbText
 10
1109.632591299629
 20
67.59610805190604
 30
0.0
 40
17.5
  1

 41
0.8000000000000001
  7
TEXT35
100
AcDbAttribute
  2
F13
 70
     0
  0
ATTRIB
  5
B6C
330
B64
100
AcDbEntity
  8
TEXT25
100
AcDbText
 10
1630.4767963938
 20
133.6605533467595
 30
0.0
 40
10.0
  1

 41
0.8
  7
TEXT20
100
AcDbAttribute
  2
F8
 70
     0
  0
ATTRIB
  5
B6D
330
B64
100
AcDbEntity
  8
TEXT35
100
AcDbText
 10
1708.470276252485
 20
67.79414689820697
 30
0.0
 40
17.5
  1

 41
0.8000000000000001
  7
TEXT35
100
AcDbAttribute
  2
F1
 70
     0
  0
SEQEND
  5
B6E
330
B64
100
AcDbEntity
  8
AM_BOR
  0
INSERT
  5
B8D
330
17
100
AcDbEntity
  8
AM_BOR
100
AcDbBlockReference
  2
RA_A3_AC
 10
0.0
 20
0.0
 30
0.0
 41
5.0
 42
5.0
 43
5.0
  0
INSERT
  5
B8E
330
17
100
AcDbEntity
  8
AM_BOR
100
AcDbBlockReference
 66
     1
  2
SF_WEB
 10
2070.0
 20
30.0
 30
0.0
 41
5.0
 42
5.0
 43
5.0
  0
ATTRIB
  5
B8F
330
B8E
100
AcDbEntity
  8
TEXT35
100
AcDbText
 10
1110.142788243675
 20
124.065215433708
 30
0.0
 40
15.0
  1

 41
0.8000000000000001
  7
TEXT35
100
AcDbAttribute
  2
F2
 70
     0
  0
ATTRIB
  5
B90
330
B8E
100
AcDbEntity
  8
TEXT35
100
AcDbText
 10
1110.142788243675
 20
101.9684241262067
 30
0.0
 40
15.0
  1

 41
0.8000000000000001
  7
TEXT35
100
AcDbAttribute
  2
F3
 70
     0
  0
ATTRIB
  5
B91
330
B8E
100
AcDbEntity
  8
TEXT25
100
AcDbText
 10
1754.650819982057
 20
38.90733732892428
 30
0.0
 40
12.5
  1

 41
0.8
  7
TEXT25
100
AcDbAttribute
  2
F11
 70
     0
  0
ATTRIB
  5
B92
330
B8E
100
AcDbEntity
  8
TEXT25
100
AcDbText
 10
1565.904039771599
 20
112.6962326396464
 30
0.0
 40
10.0
  1

 41
0.8
  7
TEXT20
100
AcDbAttribute
  2
F53
 70
     0
  0
ATTRIB
  5
B93
330
B8E
100
AcDbEntity
  8
TEXT25
100
AcDbText
 10
1566.070135833568
 20
134.0752351233225
 30
0.0
 40
10.0
  1

 41
0.8
  7
TEXT20
100
AcDbAttribute
  2
F9
 70
     0
  0
ATTRIB
  5
B94
330
B8E
100
AcDbEntity
  8
TEXT25
100
AcDbText
 10
1630.422976814713
 20
113.8179318911811
 30
0.0
 40
10.0
  1

 41
0.8
  7
TEXT20
100
AcDbAttribute
  2
F52
 70
     0
  0
ATTRIB
  5
B95
330
B8E
100
AcDbEntity
  8
TEXT35
100
AcDbText
 10
1109.632591299629
 20
67.59610805190604
 30
0.0
 40
17.5
  1

 41
0.8000000000000001
  7
TEXT35
100
AcDbAttribute
  2
F13
 70
     0
  0
ATTRIB
  5
B96
330
B8E
100
AcDbEntity
  8
TEXT25
100
AcDbText
 10
1630.4767963938
 20
133.6605533467595
 30
0.0
 40
10.0
  1

 41
0.8
  7
TEXT20
100
AcDbAttribute
  2
F8
 70
     0
  0
ATTRIB
  5
B97
330
B8E
100
AcDbEntity
  8
TEXT35
100
AcDbText
 10
1708.470276252485
 20
67.79414689820697
 30
0.0
 40
17.5
  1

 41
0.8000000000000001
  7
TEXT35
100
AcDbAttribute
  2
F1
 70
     0
  0
SEQEND
  5
B98
330
B8E
100
AcDbEntity
  8
AM_BOR
  0
INSERT
  5
B99
330
17
100
AcDbEntity
  8
AM_BOR
100
AcDbBlockReference
  2
logo_hochweb
 10
2070.0
 20
30.0
 30
0.0
 41
5.0
 42
5.0
 43
5.0
  0
VIEWPORT
  5
61
102
{ACAD_XDICTIONARY
360
BA5
102
}
330
14
100
AcDbEntity
 67
     1
  8
0
100
AcDbViewport
 10
208.5
 20
172.772378516624
 30
0.0
 40
417.0
 41
345.5447570332481
 68
     1
 69
     1
 12
208.5
 22
172.772378516624
 13
0.0
 23
0.0
 14
10.0
 24
10.0
 15
10.0
 25
10.0
 16
0.0
 26
0.0
 36
1.0
 17
0.0
 27
0.0
 37
0.0
 42
50.0
 43
0.0
 44
0.0
 45
345.5447570332481
 50
0.0
 51
0.0
 72
   100
 90
    32800
  1

281
     0
 71
     1
 74
     0
110
0.0
120
0.0
130
0.0
111
1.0
121
0.0
131
0.0
112
0.0
122
1.0
132
0.0
 79
     0
146
0.0
1001
GENIUS_GENSCREG_15
1000
PF
1040
1.0
1000
DF
1040
1.0
1000
MIN
1011
0.0
1021
0.0
1031
0.0
1000
MAX
1011
417.0
1021
345.5447570332481
1031
0.0
1000
FLAGS
1070
     4
1001
GENIUS_GENODEF_13
1002
{
1000
HIER
1070
     0
1002
}
1002
{
1000
MANEDIT
1070
     0
1002
}
1002
{
1000
NOSEL
1070
     0
1002
}
1002
{
1000
BEHIND
1070
     0
1002
}
1002
{
1000
OTHER
1070
     0
1002
}
1002
{
1000
REACTOR
1002
}
1001
GENIUS_GENOBJ-N-SDF_13
1002
{
1000
OWNER
1000
GEN
1002
}
  0
ENDSEC
  0
SECTION
  2
OBJECTS
  0
DICTIONARY
  5
C
330
0
100
AcDbDictionary
281
     1
  3
ACAD_COLOR
350
270
  3
ACAD_GROUP
350
D
  3
ACAD_LAYOUT
350
19E
  3
ACAD_MATERIAL
350
243
  3
ACAD_MLEADERSTYLE
350
295
  3
ACAD_MLINESTYLE
350
1A
  3
ACAD_PLOTSETTINGS
350
19F
  3
ACAD_PLOTSTYLENAME
350
19C
  3
ACAD_SCALELIST
350
273
  3
ACAD_TABLESTYLE
350
271
  3
ACAD_VISUALSTYLE
350
25C
  3
ACDB_RECOMPOSE_DATA
350
BA3
  3
ACDBVARIABLEDICTIONARY
350
57
  3
AcmDictionary
350
2FD
  3
AMG
350
29B
  3
AMGSNAPSETTINGS
350
336
  3
DWGPROPS
350
BA4
  0
DICTIONARY
  5
3AD
330
2
100
AcDbDictionary
280
     1
281
     1
  3
ACAD_LAYERSTATES
360
3AE
  0
DICTIONARY
  5
3D0
330
E
100
AcDbDictionary
280
     1
281
     1
  3
ADSK_XREC_LAYER_RECONCILED
360
3D1
  0
DICTIONARY
  5
3D2
330
3B
100
AcDbDictionary
280
     1
281
     1
  3
ADSK_XREC_LAYER_RECONCILED
360
3D3
  0
DICTIONARY
  5
3D4
330
3C
100
AcDbDictionary
280
     1
281
     1
  3
ADSK_XREC_LAYER_RECONCILED
360
3D5
  0
DICTIONARY
  5
3D6
330
3D
100
AcDbDictionary
280
     1
281
     1
  3
ADSK_XREC_LAYER_RECONCILED
360
3D7
  0
DICTIONARY
  5
3D8
330
3E
100
AcDbDictionary
280
     1
281
     1
  3
ADSK_XREC_LAYER_RECONCILED
360
3D9
  0
DICTIONARY
  5
3DA
330
3F
100
AcDbDictionary
280
     1
281
     1
  3
ADSK_XREC_LAYER_RECONCILED
360
3DB
  0
DICTIONARY
  5
3DC
330
41
100
AcDbDictionary
280
     1
281
     1
  3
ADSK_XREC_LAYER_RECONCILED
360
3DD
  0
DICTIONARY
  5
3DE
330
43
100
AcDbDictionary
280
     1
281
     1
  3
ADSK_XREC_LAYER_RECONCILED
360
3DF
  0
DICTIONARY
  5
3E0
330
44
100
AcDbDictionary
280
     1
281
     1
  3
ADSK_XREC_LAYER_RECONCILED
360
3E1
  0
DICTIONARY
  5
3E2
330
46
100
AcDbDictionary
280
     1
281
     1
  3
ADSK_XREC_LAYER_RECONCILED
360
3E3
  0
DICTIONARY
  5
3E4
330
47
100
AcDbDictionary
280
     1
281
     1
  3
ADSK_XREC_LAYER_RECONCILED
360
3E5
  0
DICTIONARY
  5
3E6
330
48
100
AcDbDictionary
280
     1
281
     1
  3
ADSK_XREC_LAYER_RECONCILED
360
3E7
  0
DICTIONARY
  5
3E8
330
49
100
AcDbDictionary
280
     1
281
     1
  3
ADSK_XREC_LAYER_RECONCILED
360
3E9
  0
DICTIONARY
  5
3EA
330
4A
100
AcDbDictionary
280
     1
281
     1
  3
ADSK_XREC_LAYER_RECONCILED
360
3EB
  0
DICTIONARY
  5
3EC
330
4C
100
AcDbDictionary
280
     1
281
     1
  3
ADSK_XREC_LAYER_RECONCILED
360
3ED
  0
DICTIONARY
  5
3EE
330
4D
100
AcDbDictionary
280
     1
281
     1
  3
ADSK_XREC_LAYER_RECONCILED
360
3EF
  0
DICTIONARY
  5
3F0
330
4F
100
AcDbDictionary
280
     1
281
     1
  3
ADSK_XREC_LAYER_RECONCILED
360
3F1
  0
DICTIONARY
  5
3F2
330
50
100
AcDbDictionary
280
     1
281
     1
  3
ADSK_XREC_LAYER_RECONCILED
360
3F3
  0
DICTIONARY
  5
3F4
330
52
100
AcDbDictionary
280
     1
281
     1
  3
ADSK_XREC_LAYER_RECONCILED
360
3F5
  0
DICTIONARY
  5
3F6
330
33D
100
AcDbDictionary
280
     1
281
     1
  3
ADSK_XREC_LAYER_RECONCILED
360
3F7
  0
DICTIONARY
  5
3F8
330
3AB
100
AcDbDictionary
280
     1
281
     1
  3
ADSK_XREC_LAYER_RECONCILED
360
3F9
  0
DICTIONARY
  5
AD8
330
17
100
AcDbDictionary
280
     1
281
     1
  3
ACAD_SORTENTS
360
AD9
  0
DICTIONARY
  5
3C8
330
3AF
100
AcDbDictionary
280
     1
281
     1
  3
ACAD_SORTENTS
360
3C9
  0
DICTIONARY
  5
B88
330
B6F
100
AcDbDictionary
280
     1
281
     1
  3
ACAD_SORTENTS
360
B89
  0
DICTIONARY
  5
BA5
330
61
100
AcDbDictionary
280
     1
281
     1
  3
ACAD_XREC_ROUNDTRIP
360
BA6
  0
DICTIONARY
  5
270
102
{ACAD_REACTORS
330
C
102
}
330
C
100
AcDbDictionary
281
     1
  0
DICTIONARY
  5
D
102
{ACAD_REACTORS
330
C
102
}
330
C
100
AcDbDictionary
281
     1
  0
DICTIONARY
  5
19E
102
{ACAD_REACTORS
330
C
102
}
330
C
100
AcDbDictionary
281
     1
  3
Layout1
350
1A1
  3
Model
350
1A0
  0
DICTIONARY
  5
243
102
{ACAD_REACTORS
330
C
102
}
330
C
100
AcDbDictionary
281
     1
  3
ByBlock
350
24C
  3
ByLayer
350
244
  3
Global
350
254
  0
DICTIONARY
  5
295
102
{ACAD_REACTORS
330
C
102
}
330
C
100
AcDbDictionary
281
     1
  3
Standard
350
296
  0
DICTIONARY
  5
1A
102
{ACAD_REACTORS
330
C
102
}
330
C
100
AcDbDictionary
281
     1
  3
STANDARD
350
1B
  0
DICTIONARY
  5
19F
102
{ACAD_REACTORS
330
C
102
}
330
C
100
AcDbDictionary
281
     1
  0
ACDBDICTIONARYWDFLT
  5
19C
102
{ACAD_REACTORS
330
C
102
}
330
C
100
AcDbDictionary
281
     1
  3
Normal
350
19D
100
AcDbDictionaryWithDefault
340
19D
  0
DICTIONARY
  5
273
102
{ACAD_REACTORS
330
C
102
}
330
C
100
AcDbDictionary
281
     1
  3
A0
350
274
  3
A1
350
275
  3
A2
350
276
  3
A3
350
277
  3
A4
350
278
  3
A5
350
279
  3
A6
350
27A
  3
A7
350
27B
  3
A8
350
27C
  3
A9
350
27D
  3
B0
350
27E
  3
B1
350
27F
  3
B2
350
280
  3
B3
350
281
  3
B4
350
282
  3
B5
350
283
  3
B6
350
284
  3
B7
350
285
  3
B8
350
286
  3
B9
350
287
  3
C0
350
288
  3
C1
350
289
  3
C2
350
28A
  3
C3
350
28B
  3
C4
350
28C
  3
C5
350
28D
  3
C6
350
28E
  3
C7
350
28F
  3
C8
350
290
  3
C9
350
291
  3
D0
350
292
  3
D1
350
293
  3
D2
350
294
  0
DICTIONARY
  5
271
102
{ACAD_REACTORS
330
C
102
}
330
C
100
AcDbDictionary
281
     1
  3
Standard
350
272
  0
DICTIONARY
  5
25C
102
{ACAD_REACTORS
330
C
102
}
330
C
100
AcDbDictionary
281
     1
  3
2dWireframe
350
262
  3
3D Hidden
350
264
  3
3dWireframe
350
263
  3
Basic
350
261
  3
Brighten
350
268
  3
ColorChange
350
26C
  3
Conceptual
350
265
  3
Dim
350
267
  3
EdgeColorOff
350
26F
  3
Facepattern
350
26B
  3
Flat
350
25D
  3
FlatWithEdges
350
25E
  3
Gouraud
350
25F
  3
GouraudWithEdges
350
260
  3
JitterOff
350
26D
  3
Linepattern
350
26A
  3
OverhangOff
350
26E
  3
Realistic
350
266
  3
Thicken
350
269
  0
XRECORD
  5
BA3
102
{ACAD_REACTORS
330
C
102
}
330
C
100
AcDbXrecord
280
     1
 90
        1
330
272
  0
DICTIONARY
  5
57
102
{ACAD_REACTORS
330
C
102
}
330
C
100
AcDbDictionary
281
     1
  3
CANNOSCALE
350
B9C
  3
CMLEADERSTYLE
350
B9B
  3
CTABLESTYLE
350
B9A
  3
DIMADEC
350
58
  3
DIMASSOC
350
B9F
  3
INDEXCTL
350
B9E
  3
SORTENTS
350
B9D
  3
XCLIPFRAME
350
BA0
  0
DICTIONARY
  5
2FD
102
{ACAD_REACTORS
330
C
102
}
330
C
100
AcDbDictionary
281
     1
  3
AcmStdDictionary
350
307
  0
DICTIONARY
  5
29B
102
{ACAD_REACTORS
330
C
102
}
330
C
100
AcDbDictionary
281
     1
  0
DICTIONARY
  5
336
102
{ACAD_REACTORS
330
C
102
}
330
C
100
AcDbDictionary
281
     1
  0
XRECORD
  5
BA4
102
{ACAD_REACTORS
330
C
102
}
330
C
100
AcDbXrecord
280
     1
  1
DWGPROPS COOKIE
  2

  3

  4

  6

  7

  8
osetzke
  9

300
=
301
=
302
=
303
=
304
=
305
=
306
=
307
=
308
=
309
=
 40
0.1310591203703704
 41
2450029.588839815
 42
2456372.463405799
  1

 90
        0
  0
DICTIONARY
  5
3AE
102
{ACAD_REACTORS
330
3AD
102
}
330
3AD
100
AcDbDictionary
281
     1
  0
XRECORD
  5
3D1
102
{ACAD_REACTORS
330
3D0
102
}
330
3D0
100
AcDbXrecord
280
     1
290
     1
  0
XRECORD
  5
3D3
102
{ACAD_REACTORS
330
3D2
102
}
330
3D2
100
AcDbXrecord
280
     1
290
     1
  0
XRECORD
  5
3D5
102
{ACAD_REACTORS
330
3D4
102
}
330
3D4
100
AcDbXrecord
280
     1
290
     1
  0
XRECORD
  5
3D7
102
{ACAD_REACTORS
330
3D6
102
}
330
3D6
100
AcDbXrecord
280
     1
290
     1
  0
XRECORD
  5
3D9
102
{ACAD_REACTORS
330
3D8
102
}
330
3D8
100
AcDbXrecord
280
     1
290
     1
  0
XRECORD
  5
3DB
102
{ACAD_REACTORS
330
3DA
102
}
330
3DA
100
AcDbXrecord
280
     1
290
     1
  0
XRECORD
  5
3DD
102
{ACAD_REACTORS
330
3DC
102
}
330
3DC
100
AcDbXrecord
280
     1
290
     1
  0
XRECORD
  5
3DF
102
{ACAD_REACTORS
330
3DE
102
}
330
3DE
100
AcDbXrecord
280
     1
290
     1
  0
XRECORD
  5
3E1
102
{ACAD_REACTORS
330
3E0
102
}
330
3E0
100
AcDbXrecord
280
     1
290
     1
  0
XRECORD
  5
3E3
102
{ACAD_REACTORS
330
3E2
102
}
330
3E2
100
AcDbXrecord
280
     1
290
     1
  0
XRECORD
  5
3E5
102
{ACAD_REACTORS
330
3E4
102
}
330
3E4
100
AcDbXrecord
280
     1
290
     1
  0
XRECORD
  5
3E7
102
{ACAD_REACTORS
330
3E6
102
}
330
3E6
100
AcDbXrecord
280
     1
290
     1
  0
XRECORD
  5
3E9
102
{ACAD_REACTORS
330
3E8
102
}
330
3E8
100
AcDbXrecord
280
     1
290
     1
  0
XRECORD
  5
3EB
102
{ACAD_REACTORS
330
3EA
102
}
330
3EA
100
AcDbXrecord
280
     1
290
     1
  0
XRECORD
  5
3ED
102
{ACAD_REACTORS
330
3EC
102
}
330
3EC
100
AcDbXrecord
280
     1
290
     1
  0
XRECORD
  5
3EF
102
{ACAD_REACTORS
330
3EE
102
}
330
3EE
100
AcDbXrecord
280
     1
290
     1
  0
XRECORD
  5
3F1
102
{ACAD_REACTORS
330
3F0
102
}
330
3F0
100
AcDbXrecord
280
     1
290
     1
  0
XRECORD
  5
3F3
102
{ACAD_REACTORS
330
3F2
102
}
330
3F2
100
AcDbXrecord
280
     1
290
     1
  0
XRECORD
  5
3F5
102
{ACAD_REACTORS
330
3F4
102
}
330
3F4
100
AcDbXrecord
280
     1
290
     1
  0
XRECORD
  5
3F7
102
{ACAD_REACTORS
330
3F6
102
}
330
3F6
100
AcDbXrecord
280
     1
290
     1
  0
XRECORD
  5
3F9
102
{ACAD_REACTORS
330
3F8
102
}
330
3F8
100
AcDbXrecord
280
     1
290
     1
  0
SORTENTSTABLE
  5
AD9
102
{ACAD_REACTORS
330
AD8
102
}
330
AD8
100
AcDbSortentsTable
330
17
331
A2C
  5
A2D
331
99C
  5
99D
331
98B
  5
98C
331
97A
  5
97B
331
969
  5
96A
331
A4E
  5
A4F
331
A3D
  5
A3E
331
A5F
  5
A60
331
9B7
  5
9B8
331
A1D
  5
A1E
331
A0C
  5
A0D
331
9FB
  5
9FC
331
9EA
  5
9EB
331
9D9
  5
9DA
331
9C8
  5
9C9
331
9AD
  5
9AE
331
958
  5
958
331
947
  5
947
331
A2D
  5
A2E
331
99D
  5
99E
331
98C
  5
98D
331
97B
  5
97C
331
96A
  5
96B
331
A4F
  5
A51
331
A3E
  5
A3F
331
A60
  5
A61
331
9B8
  5
9B9
331
A1E
  5
A1F
331
A0D
  5
A0E
331
9FC
  5
9FD
331
9EB
  5
9EC
331
9DA
  5
9DB
331
9C9
  5
9CA
331
9AE
  5
9AF
331
959
  5
959
331
948
  5
948
331
A2E
  5
A2F
331
99E
  5
99F
331
98D
  5
98E
331
97C
  5
97D
331
96B
  5
96C
331
A3F
  5
A40
331
A61
  5
A62
331
9B9
  5
9BA
331
A1F
  5
A20
331
A0E
  5
A0F
331
9FD
  5
9FE
331
9EC
  5
9ED
331
9DB
  5
9DC
331
9CA
  5
9CB
331
9AF
  5
9B0
331
95A
  5
95A
331
949
  5
949
331
938
  5
938
331
A20
  5
A21
331
A51
  5
A53
331
A40
  5
A41
331
A2F
  5
A30
331
99F
  5
9A0
331
98E
  5
98F
331
97D
  5
97E
331
96C
  5
96D
331
A62
  5
A63
331
9DC
  5
9DD
331
9CB
  5
9CC
331
9BA
  5
9BB
331
95B
  5
95B
331
94A
  5
94A
331
939
  5
939
331
9FE
  5
A02
331
9ED
  5
9EE
331
92C
  5
92C
331
A0F
  5
A10
331
136
  5
136
331
A21
  5
A22
331
A10
  5
A11
331
A41
  5
A42
331
A30
  5
A31
331
9A0
  5
9A1
331
98F
  5
990
331
96D
  5
96E
331
A63
  5
A64
331
9DD
  5
9DE
331
9CC
  5
9CD
331
9BB
  5
9BC
331
95C
  5
95C
331
94B
  5
94B
331
93A
  5
93A
331
9EE
  5
9EF
331
92D
  5
92D
331
A22
  5
A23
331
A11
  5
A12
331
A53
  5
A54
331
A42
  5
A43
331
A31
  5
A32
331
9A1
  5
9A2
331
990
  5
991
331
96E
  5
96F
331
A64
  5
AC7
331
9DE
  5
9DF
331
9CD
  5
9CE
331
9BC
  5
9BD
331
95D
  5
95D
331
94C
  5
94C
331
93B
  5
93B
331
9EF
  5
9F0
331
92E
  5
92E
331
A23
  5
A24
331
A12
  5
A13
331
9F0
  5
9F1
331
A54
  5
A55
331
A43
  5
A44
331
A32
  5
A33
331
9A2
  5
9A3
331
991
  5
992
331
980
  5
981
331
96F
  5
970
331
9DF
  5
9E0
331
9CE
  5
9CF
331
9BD
  5
9BE
331
95E
  5
95E
331
94D
  5
94D
331
93C
  5
93C
331
92F
  5
92F
331
9E0
  5
9E1
331
A24
  5
A25
331
A13
  5
A14
331
A02
  5
A03
331
9F1
  5
9F2
331
A55
  5
A56
331
A44
  5
A45
331
A33
  5
A34
331
9A3
  5
9A4
331
992
  5
993
331
981
  5
982
331
970
  5
971
331
9CF
  5
9D0
331
9BE
  5
9BF
331
95F
  5
95F
331
94E
  5
94E
331
93D
  5
93D
331
930
  5
930
331
9E1
  5
9E2
331
9D0
  5
9D1
331
A25
  5
A26
331
A14
  5
A15
331
A03
  5
A04
331
9F2
  5
9F3
331
AD7
  5
968
331
A56
  5
A57
331
A45
  5
A46
331
A34
  5
A35
331
9A4
  5
9A5
331
993
  5
994
331
982
  5
983
331
971
  5
972
331
9BF
  5
9C0
331
960
  5
960
331
94F
  5
94F
331
93E
  5
93E
331
931
  5
931
331
9E2
  5
9E3
331
9D1
  5
9D2
331
9C0
  5
9C1
331
A26
  5
A27
331
A15
  5
A16
331
A04
  5
A05
331
9F3
  5
9F4
331
A57
  5
A58
331
A46
  5
A47
331
A35
  5
A36
331
9A5
  5
9A6
331
994
  5
995
331
983
  5
984
331
972
  5
973
331
961
  5
961
331
950
  5
950
331
93F
  5
93F
331
932
  5
932
331
A58
  5
A59
331
9B0
  5
9B1
331
9E3
  5
9E4
331
9D2
  5
9D3
331
9C1
  5
9C2
331
A27
  5
A28
331
A16
  5
A17
331
A05
  5
A06
331
9F4
  5
9F5
331
A47
  5
A48
331
A36
  5
A37
331
9A6
  5
9A7
331
995
  5
996
331
984
  5
985
331
973
  5
974
331
962
  5
962
331
951
  5
951
331
940
  5
940
331
933
  5
933
331
A48
  5
A49
331
A59
  5
A5A
331
9B1
  5
9B2
331
9E4
  5
9E5
331
9D3
  5
9D4
331
9C2
  5
9C3
331
A17
  5
A18
331
A06
  5
A07
331
9F5
  5
9F6
331
A37
  5
A38
331
9A7
  5
9A8
331
996
  5
99A
331
985
  5
986
331
974
  5
975
331
963
  5
963
331
952
  5
952
331
941
  5
941
331
934
  5
934
331
A49
  5
A4A
331
A38
  5
A3A
331
9A8
  5
9A9
331
A5A
  5
A5B
331
9B2
  5
9B3
331
9E5
  5
9E6
331
9D4
  5
9D5
331
9C3
  5
9C4
331
A18
  5
A19
331
A07
  5
A08
331
9F6
  5
9F7
331
986
  5
987
331
975
  5
976
331
964
  5
964
331
953
  5
953
331
942
  5
942
331
935
  5
935
331
A28
  5
A29
331
A4A
  5
A4B
331
9A9
  5
9AA
331
A5B
  5
A5C
331
9D5
  5
9D6
331
9C4
  5
9C5
331
9B3
  5
9B4
331
9E6
  5
9E7
331
A19
  5
A1A
331
A08
  5
A09
331
9F7
  5
9F8
331
987
  5
988
331
976
  5
977
331
965
  5
965
331
954
  5
954
331
943
  5
943
331
936
  5
936
331
77D
  5
77D
331
A29
  5
A2A
331
988
  5
989
331
A4B
  5
A4C
331
A3A
  5
A3B
331
9AA
  5
9AB
331
A5C
  5
A5D
331
9E7
  5
9E8
331
9D6
  5
9D7
331
9C5
  5
9C6
331
9B4
  5
9B5
331
A1A
  5
A1B
331
A09
  5
A0A
331
9F8
  5
9F9
331
977
  5
978
331
966
  5
966
331
955
  5
955
331
944
  5
944
331
937
  5
937
331
A2A
  5
A2B
331
99A
  5
99B
331
989
  5
98A
331
978
  5
979
331
A4C
  5
A4D
331
A3B
  5
A3C
331
A5D
  5
A5E
331
9B5
  5
9B6
331
A1B
  5
A1C
331
A0A
  5
A0B
331
9F9
  5
9FA
331
9E8
  5
9E9
331
9D7
  5
9D8
331
9C6
  5
9C7
331
9AB
  5
9AC
331
967
  5
967
331
956
  5
956
331
945
  5
945
331
A2B
  5
A2C
331
99B
  5
99C
331
98A
  5
98B
331
979
  5
97A
331
968
  5
969
331
A4D
  5
A4E
331
A3C
  5
A3D
331
A5E
  5
A5F
331
9B6
  5
9B7
331
A1C
  5
A1D
331
A0B
  5
A0C
331
9FA
  5
9FB
331
9E9
  5
9EA
331
9D8
  5
9D9
331
9C7
  5
9C8
331
9AC
  5
9AD
331
957
  5
957
331
946
  5
946
  0
SORTENTSTABLE
  5
3C9
102
{ACAD_REACTORS
330
3C8
102
}
330
3C8
100
AcDbSortentsTable
330
3AF
  0
SORTENTSTABLE
  5
B89
102
{ACAD_REACTORS
330
B88
102
}
330
B88
100
AcDbSortentsTable
330
B6F
  0
XRECORD
  5
BA6
102
{ACAD_REACTORS
330
BA5
102
}
330
BA5
100
AcDbXrecord
280
     1
102
SHADEPLOT
 70
     0
  0
LAYOUT
  5
1A1
102
{ACAD_XDICTIONARY
360
BA8
102
}
102
{ACAD_REACTORS
330
19E
102
}
330
19E
100
AcDbPlotSettings
  1

  2
\\ACO_CAD\HP_4MV_ACO
  4

  6

 40
0.0
 41
0.0
 42
0.0
 43
0.0
 44
0.0
 45
0.0
 46
0.0
 47
0.0
 48
0.0
 49
0.0
140
0.0
141
0.0
142
1.0
143
1.0
 70
   688
 72
     0
 73
     0
 74
     5
  7
acad.ctb
 75
    16
147
1.0
148
0.0
149
0.0
100
AcDbLayout
  1
Layout1
 70
     0
 71
     1
 10
0.0
 20
0.0
 11
417.0
 21
288.0
 12
0.0
 22
0.0
 32
0.0
 14
1.000000000000000E+20
 24
1.000000000000000E+20
 34
1.000000000000000E+20
 15
-1.000000000000000E+20
 25
-1.000000000000000E+20
 35
-1.000000000000000E+20
146
0.0
 13
0.0
 23
0.0
 33
0.0
 16
1.0
 26
0.0
 36
0.0
 17
0.0
 27
1.0
 37
0.0
 76
     0
330
14
331
61
  0
LAYOUT
  5
1A0
102
{ACAD_XDICTIONARY
360
402
102
}
102
{ACAD_REACTORS
330
19E
102
}
330
19E
100
AcDbPlotSettings
  1

  2
PDFCreator
  4
A3
  6

 40
3.174999952316284
 41
3.174999952316284
 42
3.17498779296875
 43
3.17498779296875
 44
297.0530090332031
 45
420.1583251953125
 46
0.0
 47
1.356577915374685
 48
0.0
 49
0.0
140
2100.0
141
1485.0
142
1.0
143
5.108306041749825
 70
 11956
 72
     1
 73
     1
 74
     4
  7
acad.ctb
 75
     0
147
0.1957596102948943
148
0.0
149
0.0
100
AcDbLayout
  1
Model
 70
     1
 71
     0
 10
0.0
 20
0.0
 11
12.0
 21
9.0
 12
0.0
 22
0.0
 32
0.0
 14
0.0
 24
0.0
 34
0.0
 15
0.0
 25
0.0
 35
0.0
146
0.0
 13
0.0
 23
0.0
 33
0.0
 16
1.0
 26
0.0
 36
0.0
 17
0.0
 27
1.0
 37
0.0
 76
     0
330
17
331
241
1001
ACAD_PSEXT
1000
PDFCreator
1000
PDFCreator
1000
pdfcmon
1000
PDFCreator Printer
1070
     0
  0
MATERIAL
  5
24C
102
{ACAD_XDICTIONARY
360
24D
102
}
102
{ACAD_REACTORS
330
243
102
}
330
243
100
AcDbMaterial
  1
ByBlock
 72
     0
 43
0.0208333333333333
 43
0.0
 43
0.0
 43
0.0
 43
0.0
 43
0.0208333333333333
 43
0.0
 43
0.0
 43
0.0
 43
0.0
 43
1.0
 43
0.0
 43
0.0
 43
0.0
 43
0.0
 43
1.0
 77
     0
 47
0.0208333333333333
 47
0.0
 47
0.0
 47
0.0
 47
0.0
 47
0.0208333333333333
 47
0.0
 47
0.0
 47
0.0
 47
0.0
 47
1.0
 47
0.0
 47
0.0
 47
0.0
 47
0.0
 47
1.0
171
     0
 49
0.0208333333333333
 49
0.0
 49
0.0
 49
0.0
 49
0.0
 49
0.0208333333333333
 49
0.0
 49
0.0
 49
0.0
 49
0.0
 49
1.0
 49
0.0
 49
0.0
 49
0.0
 49
0.0
 49
1.0
175
     0
142
0.0208333333333333
142
0.0
142
0.0
142
0.0
142
0.0
142
0.0208333333333333
142
0.0
142
0.0
142
0.0
142
0.0
142
1.0
142
0.0
142
0.0
142
0.0
142
0.0
142
1.0
179
     0
144
0.0208333333333333
144
0.0
144
0.0
144
0.0
144
0.0
144
0.0208333333333333
144
0.0
144
0.0
144
0.0
144
0.0
144
1.0
144
0.0
144
0.0
144
0.0
144
0.0
144
1.0
147
0.0208333333333333
147
0.0
147
0.0
147
0.0
147
0.0
147
0.0208333333333333
147
0.0
147
0.0
147
0.0
147
0.0
147
1.0
147
0.0
147
0.0
147
0.0
147
0.0
147
1.0
  0
MATERIAL
  5
244
102
{ACAD_XDICTIONARY
360
245
102
}
102
{ACAD_REACTORS
330
243
102
}
330
243
100
AcDbMaterial
  1
ByLayer
 72
     0
 43
0.0208333333333333
 43
0.0
 43
0.0
 43
0.0
 43
0.0
 43
0.0208333333333333
 43
0.0
 43
0.0
 43
0.0
 43
0.0
 43
1.0
 43
0.0
 43
0.0
 43
0.0
 43
0.0
 43
1.0
 77
     0
 47
0.0208333333333333
 47
0.0
 47
0.0
 47
0.0
 47
0.0
 47
0.0208333333333333
 47
0.0
 47
0.0
 47
0.0
 47
0.0
 47
1.0
 47
0.0
 47
0.0
 47
0.0
 47
0.0
 47
1.0
171
     0
 49
0.0208333333333333
 49
0.0
 49
0.0
 49
0.0
 49
0.0
 49
0.0208333333333333
 49
0.0
 49
0.0
 49
0.0
 49
0.0
 49
1.0
 49
0.0
 49
0.0
 49
0.0
 49
0.0
 49
1.0
175
     0
142
0.0208333333333333
142
0.0
142
0.0
142
0.0
142
0.0
142
0.0208333333333333
142
0.0
142
0.0
142
0.0
142
0.0
142
1.0
142
0.0
142
0.0
142
0.0
142
0.0
142
1.0
179
     0
144
0.0208333333333333
144
0.0
144
0.0
144
0.0
144
0.0
144
0.0208333333333333
144
0.0
144
0.0
144
0.0
144
0.0
144
1.0
144
0.0
144
0.0
144
0.0
144
0.0
144
1.0
147
0.0208333333333333
147
0.0
147
0.0
147
0.0
147
0.0
147
0.0208333333333333
147
0.0
147
0.0
147
0.0
147
0.0
147
1.0
147
0.0
147
0.0
147
0.0
147
0.0
147
1.0
  0
MATERIAL
  5
254
102
{ACAD_XDICTIONARY
360
255
102
}
102
{ACAD_REACTORS
330
243
102
}
330
243
100
AcDbMaterial
  1
Global
 72
     0
 43
0.0208333333333333
 43
0.0
 43
0.0
 43
0.0
 43
0.0
 43
0.0208333333333333
 43
0.0
 43
0.0
 43
0.0
 43
0.0
 43
1.0
 43
0.0
 43
0.0
 43
0.0
 43
0.0
 43
1.0
 77
     0
 47
0.0208333333333333
 47
0.0
 47
0.0
 47
0.0
 47
0.0
 47
0.0208333333333333
 47
0.0
 47
0.0
 47
0.0
 47
0.0
 47
1.0
 47
0.0
 47
0.0
 47
0.0
 47
0.0
 47
1.0
171
     0
 49
0.0208333333333333
 49
0.0
 49
0.0
 49
0.0
 49
0.0
 49
0.0208333333333333
 49
0.0
 49
0.0
 49
0.0
 49
0.0
 49
1.0
 49
0.0
 49
0.0
 49
0.0
 49
0.0
 49
1.0
175
     0
142
0.0208333333333333
142
0.0
142
0.0
142
0.0
142
0.0
142
0.0208333333333333
142
0.0
142
0.0
142
0.0
142
0.0
142
1.0
142
0.0
142
0.0
142
0.0
142
0.0
142
1.0
179
     0
144
0.0208333333333333
144
0.0
144
0.0
144
0.0
144
0.0
144
0.0208333333333333
144
0.0
144
0.0
144
0.0
144
0.0
144
1.0
144
0.0
144
0.0
144
0.0
144
0.0
144
1.0
147
0.0208333333333333
147
0.0
147
0.0
147
0.0
147
0.0
147
0.0208333333333333
147
0.0
147
0.0
147
0.0
147
0.0
147
1.0
147
0.0
147
0.0
147
0.0
147
0.0
147
1.0
  0
MLEADERSTYLE
  5
296
102
{ACAD_REACTORS
330
295
102
}
330
295
100
AcDbMLeaderStyle
170
     2
171
     1
172
     0
 90
        2
 40
0.0
 41
0.0
173
     1
 91
-1056964608
340
11
 92
       -2
290
     1
 42
0.09
291
     1
 43
0.36
  3
Standard
 44
0.18
300

342
F
174
     1
178
     6
175
     1
176
     0
 93
-1056964608
 45
0.18
292
     0
297
     0
 46
0.18
 94
-1056964608
 47
1.0
 49
1.0
140
1.0
293
     1
141
0.0
294
     1
177
     0
142
1.0
295
     0
296
     0
143
0.125
1001
ACAD_MLEADERVER
1070
     2
  0
MLINESTYLE
  5
1B
102
{ACAD_REACTORS
330
1A
102
}
330
1A
100
AcDbMlineStyle
  2
STANDARD
 70
     0
  3

 62
   256
 51
90.0
 52
90.0
 71
     2
 49
0.5
 62
   256
  6
BYLAYER
 49
-0.5
 62
   256
  6
BYLAYER
  0
ACDBPLACEHOLDER
  5
19D
102
{ACAD_REACTORS
330
19C
102
}
330
19C
  0
SCALE
  5
274
102
{ACAD_REACTORS
330
273
102
}
330
273
100
AcDbScale
 70
     0
300
1:1
140
1.0
141
1.0
290
     1
  0
SCALE
  5
275
102
{ACAD_REACTORS
330
273
102
}
330
273
100
AcDbScale
 70
     0
300
1:2
140
1.0
141
2.0
290
     0
  0
SCALE
  5
276
102
{ACAD_REACTORS
330
273
102
}
330
273
100
AcDbScale
 70
     0
300
1:4
140
1.0
141
4.0
290
     0
  0
SCALE
  5
277
102
{ACAD_REACTORS
330
273
102
}
330
273
100
AcDbScale
 70
     0
300
1:5
140
1.0
141
5.0
290
     0
  0
SCALE
  5
278
102
{ACAD_REACTORS
330
273
102
}
330
273
100
AcDbScale
 70
     0
300
1:8
140
1.0
141
8.0
290
     0
  0
SCALE
  5
279
102
{ACAD_REACTORS
330
273
102
}
330
273
100
AcDbScale
 70
     0
300
1:10
140
1.0
141
10.0
290
     0
  0
SCALE
  5
27A
102
{ACAD_REACTORS
330
273
102
}
330
273
100
AcDbScale
 70
     0
300
1:16
140
1.0
141
16.0
290
     0
  0
SCALE
  5
27B
102
{ACAD_REACTORS
330
273
102
}
330
273
100
AcDbScale
 70
     0
300
1:20
140
1.0
141
20.0
290
     0
  0
SCALE
  5
27C
102
{ACAD_REACTORS
330
273
102
}
330
273
100
AcDbScale
 70
     0
300
1:30
140
1.0
141
30.0
290
     0
  0
SCALE
  5
27D
102
{ACAD_REACTORS
330
273
102
}
330
273
100
AcDbScale
 70
     0
300
1:40
140
1.0
141
40.0
290
     0
  0
SCALE
  5
27E
102
{ACAD_REACTORS
330
273
102
}
330
273
100
AcDbScale
 70
     0
300
1:50
140
1.0
141
50.0
290
     0
  0
SCALE
  5
27F
102
{ACAD_REACTORS
330
273
102
}
330
273
100
AcDbScale
 70
     0
300
1:100
140
1.0
141
100.0
290
     0
  0
SCALE
  5
280
102
{ACAD_REACTORS
330
273
102
}
330
273
100
AcDbScale
 70
     0
300
2:1
140
2.0
141
1.0
290
     0
  0
SCALE
  5
281
102
{ACAD_REACTORS
330
273
102
}
330
273
100
AcDbScale
 70
     0
300
4:1
140
4.0
141
1.0
290
     0
  0
SCALE
  5
282
102
{ACAD_REACTORS
330
273
102
}
330
273
100
AcDbScale
 70
     0
300
8:1
140
8.0
141
1.0
290
     0
  0
SCALE
  5
283
102
{ACAD_REACTORS
330
273
102
}
330
273
100
AcDbScale
 70
     0
300
10:1
140
10.0
141
1.0
290
     0
  0
SCALE
  5
284
102
{ACAD_REACTORS
330
273
102
}
330
273
100
AcDbScale
 70
     0
300
100:1
140
100.0
141
1.0
290
     0
  0
SCALE
  5
285
102
{ACAD_REACTORS
330
273
102
}
330
273
100
AcDbScale
 70
     0
300
1/128" = 1'-0"
140
0.0078125
141
12.0
290
     0
  0
SCALE
  5
286
102
{ACAD_REACTORS
330
273
102
}
330
273
100
AcDbScale
 70
     0
300
1/64" = 1'-0"
140
0.015625
141
12.0
290
     0
  0
SCALE
  5
287
102
{ACAD_REACTORS
330
273
102
}
330
273
100
AcDbScale
 70
     0
300
1/32" = 1'-0"
140
0.03125
141
12.0
290
     0
  0
SCALE
  5
288
102
{ACAD_REACTORS
330
273
102
}
330
273
100
AcDbScale
 70
     0
300
1/16" = 1'-0"
140
0.0625
141
12.0
290
     0
  0
SCALE
  5
289
102
{ACAD_REACTORS
330
273
102
}
330
273
100
AcDbScale
 70
     0
300
3/32" = 1'-0"
140
0.09375
141
12.0
290
     0
  0
SCALE
  5
28A
102
{ACAD_REACTORS
330
273
102
}
330
273
100
AcDbScale
 70
     0
300
1/8" = 1'-0"
140
0.125
141
12.0
290
     0
  0
SCALE
  5
28B
102
{ACAD_REACTORS
330
273
102
}
330
273
100
AcDbScale
 70
     0
300
3/16" = 1'-0"
140
0.1875
141
12.0
290
     0
  0
SCALE
  5
28C
102
{ACAD_REACTORS
330
273
102
}
330
273
100
AcDbScale
 70
     0
300
1/4" = 1'-0"
140
0.25
141
12.0
290
     0
  0
SCALE
  5
28D
102
{ACAD_REACTORS
330
273
102
}
330
273
100
AcDbScale
 70
     0
300
3/8" = 1'-0"
140
0.375
141
12.0
290
     0
  0
SCALE
  5
28E
102
{ACAD_REACTORS
330
273
102
}
330
273
100
AcDbScale
 70
     0
300
1/2" = 1'-0"
140
0.5
141
12.0
290
     0
  0
SCALE
  5
28F
102
{ACAD_REACTORS
330
273
102
}
330
273
100
AcDbScale
 70
     0
300
3/4" = 1'-0"
140
0.75
141
12.0
290
     0
  0
SCALE
  5
290
102
{ACAD_REACTORS
330
273
102
}
330
273
100
AcDbScale
 70
     0
300
1" = 1'-0"
140
1.0
141
12.0
290
     0
  0
SCALE
  5
291
102
{ACAD_REACTORS
330
273
102
}
330
273
100
AcDbScale
 70
     0
300
1-1/2" = 1'-0"
140
1.5
141
12.0
290
     0
  0
SCALE
  5
292
102
{ACAD_REACTORS
330
273
102
}
330
273
100
AcDbScale
 70
     0
300
3" = 1'-0"
140
3.0
141
12.0
290
     0
  0
SCALE
  5
293
102
{ACAD_REACTORS
330
273
102
}
330
273
100
AcDbScale
 70
     0
300
6" = 1'-0"
140
6.0
141
12.0
290
     0
  0
SCALE
  5
294
102
{ACAD_REACTORS
330
273
102
}
330
273
100
AcDbScale
 70
     0
300
1'-0" = 1'-0"
140
12.0
141
12.0
290
     0
  0
TABLESTYLE
  5
272
102
{ACAD_XDICTIONARY
360
BA1
102
}
102
{ACAD_REACTORS
330
271
102
}
330
271
100
AcDbTableStyle
  3
Standard
 70
     0
 71
     0
 40
0.06
 41
0.06
280
     0
281
     0
  7
STANDARD
140
0.18
170
     2
 62
     0
 63
     7
283
     0
274
    -2
284
     1
 64
     0
275
    -2
285
     1
 65
     0
276
    -2
286
     1
 66
     0
277
    -2
287
     1
 67
     0
278
    -2
288
     1
 68
     0
279
    -2
289
     1
 69
     0
  7
STANDARD
140
0.25
170
     5
 62
     0
 63
     7
283
     0
274
    -2
284
     1
 64
     0
275
    -2
285
     1
 65
     0
276
    -2
286
     1
 66
     0
277
    -2
287
     1
 67
     0
278
    -2
288
     1
 68
     0
279
    -2
289
     1
 69
     0
  7
STANDARD
140
0.18
170
     5
 62
     0
 63
     7
283
     0
274
    -2
284
     1
 64
     0
275
    -2
285
     1
 65
     0
276
    -2
286
     1
 66
     0
277
    -2
287
     1
 67
     0
278
    -2
288
     1
 68
     0
279
    -2
289
     1
 69
     0
  0
VISUALSTYLE
  5
262
102
{ACAD_XDICTIONARY
360
BB7
102
}
102
{ACAD_REACTORS
330
25C
102
}
330
25C
100
AcDbVisualStyle
  2
2dWireframe
 70
     4
 71
     0
 72
     2
 73
     0
 90
        0
 40
-0.6
 41
-30.0
 62
     5
 63
     7
 74
     1
 91
        4
 64
     7
 65
   257
 75
     1
175
     1
 42
1.0
 92
        0
 66
   257
 43
1.0
 76
     1
 77
     6
 78
     2
 67
     7
 79
     5
170
     0
171
     0
290
     0
174
     0
 93
        1
 44
0.0
173
     0
291
     0
 45
0.0
1001
ACAD
1000
AcDbSavedByObjectVersion
1070
     0
  0
VISUALSTYLE
  5
264
102
{ACAD_XDICTIONARY
360
BBB
102
}
102
{ACAD_REACTORS
330
25C
102
}
330
25C
100
AcDbVisualStyle
  2
3D Hidden
 70
     6
 71
     1
 72
     2
 73
     2
 90
        0
 40
-0.6
 41
-30.0
 62
     5
 63
     7
 74
     2
 91
        2
 64
     7
 65
   257
 75
     2
175
     1
 42
179.0
 92
        0
 66
   257
 43
1.0
 76
     1
 77
     6
 78
     2
 67
     7
 79
     3
170
     0
171
     0
290
     0
174
     0
 93
        1
 44
0.0
173
     0
291
     0
 45
0.0
1001
ACAD
1000
AcDbSavedByObjectVersion
1070
     0
  0
VISUALSTYLE
  5
263
102
{ACAD_XDICTIONARY
360
BB9
102
}
102
{ACAD_REACTORS
330
25C
102
}
330
25C
100
AcDbVisualStyle
  2
3dWireframe
 70
     5
 71
     0
 72
     2
 73
     0
 90
        0
 40
-0.6
 41
-30.0
 62
     5
 63
     7
 74
     1
 91
        4
 64
     7
 65
   257
 75
     1
175
     1
 42
1.0
 92
        0
 66
   257
 43
1.0
 76
     1
 77
     6
 78
     2
 67
     7
 79
     5
170
     0
171
     0
290
     0
174
     0
 93
        1
 44
0.0
173
     0
291
     0
 45
0.0
1001
ACAD
1000
AcDbSavedByObjectVersion
1070
     0
  0
VISUALSTYLE
  5
261
102
{ACAD_XDICTIONARY
360
BB5
102
}
102
{ACAD_REACTORS
330
25C
102
}
330
25C
100
AcDbVisualStyle
  2
Basic
 70
     7
 71
     1
 72
     0
 73
     1
 90
        0
 40
-0.6
 41
-30.0
 62
     5
 63
     7
 74
     0
 91
        4
 64
     7
 65
   257
 75
     1
175
     1
 42
1.0
 92
        8
 66
     7
 43
1.0
 76
     1
 77
     6
 78
     2
 67
     7
 79
     5
170
     0
171
     0
290
     0
174
     0
 93
        1
 44
0.0
173
     0
291
     1
 45
0.0
1001
ACAD
1000
AcDbSavedByObjectVersion
1070
     0
  0
VISUALSTYLE
  5
268
102
{ACAD_XDICTIONARY
360
BC3
102
}
102
{ACAD_REACTORS
330
25C
102
}
330
25C
100
AcDbVisualStyle
  2
Brighten
 70
    12
 71
     2
 72
     2
 73
     0
 90
        0
 40
-0.6
 41
-30.0
 62
     5
 63
     7
 74
     1
 91
        4
 64
     7
 65
   257
 75
     1
175
     1
 42
1.0
 92
        8
 66
     7
 43
1.0
 76
     1
 77
     6
 78
     2
 67
     7
 79
     5
170
     0
171
     0
290
     0
174
     0
 93
        1
 44
50.0
173
     0
291
     1
 45
0.0
1001
ACAD
1000
AcDbSavedByObjectVersion
1070
     0
  0
VISUALSTYLE
  5
26C
102
{ACAD_XDICTIONARY
360
BCB
102
}
102
{ACAD_REACTORS
330
25C
102
}
330
25C
100
AcDbVisualStyle
  2
ColorChange
 70
    16
 71
     2
 72
     2
 73
     3
 90
        0
 40
-0.6
 41
-30.0
 62
     5
 63
     8
 74
     1
 91
        4
 64
     7
 65
   257
 75
     1
175
     1
 42
1.0
 92
        8
 66
     8
 43
1.0
 76
     1
 77
     6
 78
     2
 67
     7
 79
     5
170
     0
171
     0
290
     0
174
     0
 93
        1
 44
0.0
173
     0
291
     1
 45
0.0
1001
ACAD
1000
AcDbSavedByObjectVersion
1070
     0
  0
VISUALSTYLE
  5
265
102
{ACAD_XDICTIONARY
360
BBD
102
}
102
{ACAD_REACTORS
330
25C
102
}
330
25C
100
AcDbVisualStyle
  2
Conceptual
 70
     9
 71
     3
 72
     2
 73
     0
 90
        0
 40
-0.6
 41
-30.0
 62
     5
 63
     7
 74
     2
 91
        2
 64
     7
 65
   257
 75
     1
175
     1
 42
179.0
 92
        8
 66
     7
 43
1.0
 76
     1
 77
     6
 78
     2
 67
     7
 79
     3
170
     0
171
     0
290
     0
174
     0
 93
        1
 44
0.0
173
     0
291
     0
 45
0.0
1001
ACAD
1000
AcDbSavedByObjectVersion
1070
     0
  0
VISUALSTYLE
  5
267
102
{ACAD_XDICTIONARY
360
BC1
102
}
102
{ACAD_REACTORS
330
25C
102
}
330
25C
100
AcDbVisualStyle
  2
Dim
 70
    11
 71
     2
 72
     2
 73
     0
 90
        0
 40
-0.6
 41
-30.0
 62
     5
 63
     7
 74
     1
 91
        4
 64
     7
 65
   257
 75
     1
175
     1
 42
1.0
 92
        8
 66
     7
 43
1.0
 76
     1
 77
     6
 78
     2
 67
     7
 79
     5
170
     0
171
     0
290
     0
174
     0
 93
        1
 44
-50.0
173
     0
291
     1
 45
0.0
1001
ACAD
1000
AcDbSavedByObjectVersion
1070
     0
  0
VISUALSTYLE
  5
26F
102
{ACAD_XDICTIONARY
360
BD1
102
}
102
{ACAD_REACTORS
330
25C
102
}
330
25C
100
AcDbVisualStyle
  2
EdgeColorOff
 70
    22
 71
     2
 72
     2
 73
     0
 90
        0
 40
-0.6
 41
-30.0
 62
     5
 63
     7
 74
     1
 91
        4
 64
     7
 65
   257
 75
     1
175
     1
 42
1.0
 92
        8
 66
     7
 43
1.0
 76
     1
 77
     6
 78
     2
 67
     7
 79
     5
170
     0
171
     0
290
     0
174
     0
 93
        1
 44
0.0
173
     0
291
     1
 45
0.0
1001
ACAD
1000
AcDbSavedByObjectVersion
1070
     0
  0
VISUALSTYLE
  5
26B
102
{ACAD_XDICTIONARY
360
BC9
102
}
102
{ACAD_REACTORS
330
25C
102
}
330
25C
100
AcDbVisualStyle
  2
Facepattern
 70
    15
 71
     2
 72
     2
 73
     0
 90
        0
 40
-0.6
 41
-30.0
 62
     5
 63
     7
 74
     1
 91
        4
 64
     7
 65
   257
 75
     1
175
     1
 42
1.0
 92
        8
 66
     7
 43
1.0
 76
     1
 77
     6
 78
     2
 67
     7
 79
     5
170
     0
171
     0
290
     0
174
     0
 93
        1
 44
0.0
173
     0
291
     1
 45
0.0
1001
ACAD
1000
AcDbSavedByObjectVersion
1070
     0
  0
VISUALSTYLE
  5
25D
102
{ACAD_XDICTIONARY
360
BAD
102
}
102
{ACAD_REACTORS
330
25C
102
}
330
25C
100
AcDbVisualStyle
  2
Flat
 70
     0
 71
     2
 72
     1
 73
     1
 90
        2
 40
-0.6
 41
30.0
 62
     5
 63
     7
 74
     0
 91
        4
 64
     7
 65
   257
 75
     1
175
     1
 42
1.0
 92
        8
 66
     7
 43
1.0
 76
     1
 77
     6
 78
     2
 67
     7
 79
     5
170
     0
171
     0
290
     0
174
     0
 93
       13
 44
0.0
173
     0
291
     1
 45
0.0
1001
ACAD
1000
AcDbSavedByObjectVersion
1070
     0
  0
VISUALSTYLE
  5
25E
102
{ACAD_XDICTIONARY
360
BAF
102
}
102
{ACAD_REACTORS
330
25C
102
}
330
25C
100
AcDbVisualStyle
  2
FlatWithEdges
 70
     1
 71
     2
 72
     1
 73
     1
 90
        2
 40
-0.6
 41
30.0
 62
     5
 63
     7
 74
     1
 91
        4
 64
     7
 65
   257
 75
     1
175
     1
 42
1.0
 92
        0
 66
   257
 43
1.0
 76
     1
 77
     6
 78
     2
 67
     7
 79
     5
170
     0
171
     0
290
     0
174
     0
 93
       13
 44
0.0
173
     0
291
     1
 45
0.0
1001
ACAD
1000
AcDbSavedByObjectVersion
1070
     0
  0
VISUALSTYLE
  5
25F
102
{ACAD_XDICTIONARY
360
BB1
102
}
102
{ACAD_REACTORS
330
25C
102
}
330
25C
100
AcDbVisualStyle
  2
Gouraud
 70
     2
 71
     2
 72
     2
 73
     1
 90
        2
 40
-0.6
 41
30.0
 62
     5
 63
     7
 74
     0
 91
        4
 64
     7
 65
   257
 75
     1
175
     1
 42
1.0
 92
        0
 66
     7
 43
1.0
 76
     1
 77
     6
 78
     2
 67
     7
 79
     5
170
     0
171
     0
290
     0
174
     0
 93
       13
 44
0.0
173
     0
291
     1
 45
0.0
1001
ACAD
1000
AcDbSavedByObjectVersion
1070
     0
  0
VISUALSTYLE
  5
260
102
{ACAD_XDICTIONARY
360
BB3
102
}
102
{ACAD_REACTORS
330
25C
102
}
330
25C
100
AcDbVisualStyle
  2
GouraudWithEdges
 70
     3
 71
     2
 72
     2
 73
     1
 90
        2
 40
-0.6
 41
30.0
 62
     5
 63
     7
 74
     1
 91
        4
 64
     7
 65
   257
 75
     1
175
     1
 42
1.0
 92
        0
 66
   257
 43
1.0
 76
     1
 77
     6
 78
     2
 67
     7
 79
     5
170
     0
171
     0
290
     0
174
     0
 93
       13
 44
0.0
173
     0
291
     1
 45
0.0
1001
ACAD
1000
AcDbSavedByObjectVersion
1070
     0
  0
VISUALSTYLE
  5
26D
102
{ACAD_XDICTIONARY
360
BCD
102
}
102
{ACAD_REACTORS
330
25C
102
}
330
25C
100
AcDbVisualStyle
  2
JitterOff
 70
    20
 71
     2
 72
     2
 73
     0
 90
        0
 40
-0.6
 41
-30.0
 62
     5
 63
     7
 74
     1
 91
        4
 64
     7
 65
   257
 75
     1
175
     1
 42
1.0
 92
       10
 66
     7
 43
1.0
 76
     1
 77
     6
 78
     2
 67
     7
 79
     5
170
     0
171
     0
290
     0
174
     0
 93
        1
 44
0.0
173
     0
291
     1
 45
0.0
1001
ACAD
1000
AcDbSavedByObjectVersion
1070
     0
  0
VISUALSTYLE
  5
26A
102
{ACAD_XDICTIONARY
360
BC7
102
}
102
{ACAD_REACTORS
330
25C
102
}
330
25C
100
AcDbVisualStyle
  2
Linepattern
 70
    14
 71
     2
 72
     2
 73
     0
 90
        0
 40
-0.6
 41
-30.0
 62
     5
 63
     7
 74
     1
 91
        4
 64
     7
 65
   257
 75
     7
175
     7
 42
1.0
 92
        8
 66
     7
 43
1.0
 76
     1
 77
     6
 78
     2
 67
     7
 79
     5
170
     0
171
     0
290
     0
174
     0
 93
        1
 44
0.0
173
     0
291
     1
 45
0.0
1001
ACAD
1000
AcDbSavedByObjectVersion
1070
     0
  0
VISUALSTYLE
  5
26E
102
{ACAD_XDICTIONARY
360
BCF
102
}
102
{ACAD_REACTORS
330
25C
102
}
330
25C
100
AcDbVisualStyle
  2
OverhangOff
 70
    21
 71
     2
 72
     2
 73
     0
 90
        0
 40
-0.6
 41
-30.0
 62
     5
 63
     7
 74
     1
 91
        4
 64
     7
 65
   257
 75
     1
175
     1
 42
1.0
 92
        9
 66
     7
 43
1.0
 76
     1
 77
     6
 78
     2
 67
     7
 79
     5
170
     0
171
     0
290
     0
174
     0
 93
        1
 44
0.0
173
     0
291
     1
 45
0.0
1001
ACAD
1000
AcDbSavedByObjectVersion
1070
     0
  0
VISUALSTYLE
  5
266
102
{ACAD_XDICTIONARY
360
BBF
102
}
102
{ACAD_REACTORS
330
25C
102
}
330
25C
100
AcDbVisualStyle
  2
Realistic
 70
     8
 71
     2
 72
     2
 73
     0
 90
        0
 40
-0.6
 41
-30.0
 62
     5
 63
     7
 74
     1
 91
        0
 64
     7
 65
   257
 75
     1
175
     1
 42
1.0
 92
        8
 66
     8
 43
1.0
 76
     1
 77
     6
 78
     2
 67
     7
 79
     5
170
     0
171
     0
290
     0
174
     0
 93
       13
 44
0.0
173
     0
291
     0
 45
0.0
1001
ACAD
1000
AcDbSavedByObjectVersion
1070
     0
  0
VISUALSTYLE
  5
269
102
{ACAD_XDICTIONARY
360
BC5
102
}
102
{ACAD_REACTORS
330
25C
102
}
330
25C
100
AcDbVisualStyle
  2
Thicken
 70
    13
 71
     2
 72
     2
 73
     0
 90
        0
 40
-0.6
 41
-30.0
 62
     5
 63
     7
 74
     1
 91
        4
 64
     7
 65
   257
 75
     1
175
     1
 42
1.0
 92
       12
 66
     7
 43
1.0
 76
     1
 77
     6
 78
     2
 67
     7
 79
     5
170
     0
171
     0
290
     0
174
     0
 93
        1
 44
0.0
173
     0
291
     1
 45
0.0
1001
ACAD
1000
AcDbSavedByObjectVersion
1070
     0
  0
DICTIONARYVAR
  5
B9C
102
{ACAD_REACTORS
330
57
102
}
330
57
100
DictionaryVariables
280
     0
  1
1:1
  0
DICTIONARYVAR
  5
B9B
102
{ACAD_REACTORS
330
57
102
}
330
57
100
DictionaryVariables
280
     0
  1
STANDARD
  0
DICTIONARYVAR
  5
B9A
102
{ACAD_REACTORS
330
57
102
}
330
57
100
DictionaryVariables
280
     0
  1
STANDARD
  0
DICTIONARYVAR
  5
58
102
{ACAD_REACTORS
330
57
102
}
330
57
100
DictionaryVariables
280
     0
  1
1
  0
DICTIONARYVAR
  5
B9F
102
{ACAD_REACTORS
330
57
102
}
330
57
100
DictionaryVariables
280
     0
  1
1
  0
DICTIONARYVAR
  5
B9E
102
{ACAD_REACTORS
330
57
102
}
330
57
100
DictionaryVariables
280
     0
  1
0
  0
DICTIONARYVAR
  5
B9D
102
{ACAD_REACTORS
330
57
102
}
330
57
100
DictionaryVariables
280
     0
  1
127
  0
DICTIONARYVAR
  5
BA0
102
{ACAD_REACTORS
330
57
102
}
330
57
100
DictionaryVariables
280
     0
  1
2
  0
DICTIONARY
  5
307
102
{ACAD_REACTORS
330
2FD
102
}
330
2FD
100
AcDbDictionary
281
     1
  0
DICTIONARY
  5
BA8
330
1A1
100
AcDbDictionary
280
     1
281
     1
  3
ACAD_XREC_ROUNDTRIP
360
BA9
  0
DICTIONARY
  5
402
330
1A0
100
AcDbDictionary
280
     1
281
     1
  3
ACAD_XREC_ROUNDTRIP
360
BA7
  3
ADSK_XREC_LAYOUTTHUMBNAIL
360
403
  0
DICTIONARY
  5
24D
330
24C
100
AcDbDictionary
280
     1
281
     1
  3
ACAD_XREC_ROUNDTRIP
360
BAB
  3
BUMPTILE
360
24F
  3
DIFFUSETILE
360
24E
  3
OPACITYTILE
360
252
  3
REFLECTIONTILE
360
251
  3
REFRACTIONTILE
360
253
  3
SPECULARTILE
360
250
  0
DICTIONARY
  5
245
330
244
100
AcDbDictionary
280
     1
281
     1
  3
ACAD_XREC_ROUNDTRIP
360
BAA
  3
BUMPTILE
360
247
  3
DIFFUSETILE
360
246
  3
OPACITYTILE
360
24A
  3
REFLECTIONTILE
360
249
  3
REFRACTIONTILE
360
24B
  3
SPECULARTILE
360
248
  0
DICTIONARY
  5
255
330
254
100
AcDbDictionary
280
     1
281
     1
  3
ACAD_XREC_ROUNDTRIP
360
BAC
  3
BUMPTILE
360
257
  3
DIFFUSETILE
360
256
  3
OPACITYTILE
360
25A
  3
REFLECTIONTILE
360
259
  3
REFRACTIONTILE
360
25B
  3
SPECULARTILE
360
258
  0
DICTIONARY
  5
BA1
330
272
100
AcDbDictionary
280
     1
281
     1
  3
ACAD_ROUNDTRIP_2008_TABLESTYLE_CELLSTYLEMAP
360
BA2
  3
ACAD_XREC_ROUNDTRIP
360
BD3
  0
DICTIONARY
  5
BB7
330
262
100
AcDbDictionary
280
     1
281
     1
  3
ACAD_XREC_ROUNDTRIP
360
BB8
  0
DICTIONARY
  5
BBB
330
264
100
AcDbDictionary
280
     1
281
     1
  3
ACAD_XREC_ROUNDTRIP
360
BBC
  0
DICTIONARY
  5
BB9
330
263
100
AcDbDictionary
280
     1
281
     1
  3
ACAD_XREC_ROUNDTRIP
360
BBA
  0
DICTIONARY
  5
BB5
330
261
100
AcDbDictionary
280
     1
281
     1
  3
ACAD_XREC_ROUNDTRIP
360
BB6
  0
DICTIONARY
  5
BC3
330
268
100
AcDbDictionary
280
     1
281
     1
  3
ACAD_XREC_ROUNDTRIP
360
BC4
  0
DICTIONARY
  5
BCB
330
26C
100
AcDbDictionary
280
     1
281
     1
  3
ACAD_XREC_ROUNDTRIP
360
BCC
  0
DICTIONARY
  5
BBD
330
265
100
AcDbDictionary
280
     1
281
     1
  3
ACAD_XREC_ROUNDTRIP
360
BBE
  0
DICTIONARY
  5
BC1
330
267
100
AcDbDictionary
280
     1
281
     1
  3
ACAD_XREC_ROUNDTRIP
360
BC2
  0
DICTIONARY
  5
BD1
330
26F
100
AcDbDictionary
280
     1
281
     1
  3
ACAD_XREC_ROUNDTRIP
360
BD2
  0
DICTIONARY
  5
BC9
330
26B
100
AcDbDictionary
280
     1
281
     1
  3
ACAD_XREC_ROUNDTRIP
360
BCA
  0
DICTIONARY
  5
BAD
330
25D
100
AcDbDictionary
280
     1
281
     1
  3
ACAD_XREC_ROUNDTRIP
360
BAE
  0
DICTIONARY
  5
BAF
330
25E
100
AcDbDictionary
280
     1
281
     1
  3
ACAD_XREC_ROUNDTRIP
360
BB0
  0
DICTIONARY
  5
BB1
330
25F
100
AcDbDictionary
280
     1
281
     1
  3
ACAD_XREC_ROUNDTRIP
360
BB2
  0
DICTIONARY
  5
BB3
330
260
100
AcDbDictionary
280
     1
281
     1
  3
ACAD_XREC_ROUNDTRIP
360
BB4
  0
DICTIONARY
  5
BCD
330
26D
100
AcDbDictionary
280
     1
281
     1
  3
ACAD_XREC_ROUNDTRIP
360
BCE
  0
DICTIONARY
  5
BC7
330
26A
100
AcDbDictionary
280
     1
281
     1
  3
ACAD_XREC_ROUNDTRIP
360
BC8
  0
DICTIONARY
  5
BCF
330
26E
100
AcDbDictionary
280
     1
281
     1
  3
ACAD_XREC_ROUNDTRIP
360
BD0
  0
DICTIONARY
  5
BBF
330
266
100
AcDbDictionary
280
     1
281
     1
  3
ACAD_XREC_ROUNDTRIP
360
BC0
  0
DICTIONARY
  5
BC5
330
269
100
AcDbDictionary
280
     1
281
     1
  3
ACAD_XREC_ROUNDTRIP
360
BC6
  0
XRECORD
  5
BA9
102
{ACAD_REACTORS
330
BA8
102
}
330
BA8
100
AcDbXrecord
280
     1
102
SHADEPLOT
 70
     0
102
SHADEPLOTRESLEVEL
 70
     2
102
SHADEPLOTCUSTOMDPI
 70
   300
  0
XRECORD
  5
BA7
102
{ACAD_REACTORS
330
402
102
}
330
402
100
AcDbXrecord
280
     1
102
SHADEPLOT
 70
     0
102
SHADEPLOTRESLEVEL
 70
     2
102
SHADEPLOTCUSTOMDPI
 70
   300
  0
XRECORD
  5
403
102
{ACAD_REACTORS
330
402
102
}
330
402
100
AcDbXrecord
280
     1
310
2800000000010000A6000000010008000000000000A60000000000000000000000010000000000003333330000000000FFFFFF000000000000000000000000000000000000000000000000000000000000000000330000006600000099000000CC000000FF00000000330000333300006633000099330000CC330000FF3300
310
0000660000336600006666000099660000CC660000FF66000000990000339900006699000099990000CC990000FF99000000CC000033CC000066CC000099CC0000CCCC0000FFCC000000FF000033FF000066FF000099FF0000CCFF0000FFFF000000003300330033006600330099003300CC003300FF003300003333003333
310
33006633330099333300CC333300FF33330000663300336633006666330099663300CC663300FF66330000993300339933006699330099993300CC993300FF99330000CC330033CC330066CC330099CC3300CCCC3300FFCC330000FF330033FF330066FF330099FF3300CCFF3300FFFF330000006600330066006600660099
310
006600CC006600FF00660000336600333366006633660099336600CC336600FF33660000666600336666006666660099666600CC666600FF66660000996600339966006699660099996600CC996600FF99660000CC660033CC660066CC660099CC6600CCCC6600FFCC660000FF660033FF660066FF660099FF6600CCFF6600
310
FFFF660000009900330099006600990099009900CC009900FF00990000339900333399006633990099339900CC339900FF33990000669900336699006666990099669900CC669900FF66990000999900339999006699990099999900CC999900FF99990000CC990033CC990066CC990099CC9900CCCC9900FFCC990000FF99
310
0033FF990066FF990099FF9900CCFF9900FFFF99000000CC003300CC006600CC009900CC00CC00CC00FF00CC000033CC003333CC006633CC009933CC00CC33CC00FF33CC000066CC003366CC006666CC009966CC00CC66CC00FF66CC000099CC003399CC006699CC009999CC00CC99CC00FF99CC0000CCCC0033CCCC0066CC
310
CC0099CCCC00CCCCCC00FFCCCC0000FFCC0033FFCC0066FFCC0099FFCC00CCFFCC00FFFFCC000000FF003300FF006600FF009900FF00CC00FF00FF00FF000033FF003333FF006633FF009933FF00CC33FF00FF33FF000066FF003366FF006666FF009966FF00CC66FF00FF66FF000099FF003399FF006699FF009999FF00CC
310
99FF00FF99FF0000CCFF0033CCFF0066CCFF0099CCFF00CCCCFF00FFCCFF0000FFFF0033FFFF0066FFFF0099FFFF00CCFFFF00FFFFFF00000000000D0D0D001A1A1A00282828003535350043434300505050005D5D5D006B6B6B00787878008686860093939300A1A1A100AEAEAE00BBBBBB00C9C9C900D6D6D600E4E4E400
310
F1F1F100FFFFFF0000000000000000000000000000000000000000000000000000000000000000000000000000000000E6E6E6E6E6E6E6E6E6E6E6E6E6E6E6E6E6E6E6E6E6E6E6E6E6E6E6E6E6E6E6E6E6E6E6E6E6E6E6E6E6E6E6E6E6E6E6E6E6E6E6E6E6E6E6E6E6E6E6E6E6E6E6E6E6E6E6E6E6E6E6E6E6E6E6E6E6E6E6
310
E6E6E6E6E6E6E6E6E6E6E6E6E6E6E6E6E6E6E6E6E6E6E6E6E6E6E6E6E6E6E6E6E6E6E6E6E6E6E6E6E6E6E6E6E6E6E6E6E6E6E6E6E6E6E6E6E6E6E6E6E6E6E6E6E6E6E6E6E6E6E6E6E6E6E6E6E6E6E6E6E6E6E6E6E6E6E6E6E6E6E6E6E6E6E6E6E6E6E6E6E6E6E6E6E6E6E6E6E6E6E6E6E6E6E6E6E6E6E6E6E6E6E6E6E6E6E6
310
E6E6E6E6E6E6E6E6E6E6E6E6E6E6E6E6E6E6E6E6E6E6E6E6E6E6E6E6E6E6E6E6E6E6E6E6E6E6E6E6E6E6E6E6E6E6E6E6E6E6E6E6E6E6E6E6E6E6E6E6E6E6E6E6E67676767676767676767676767676767676767676767676767676767676767676767676767676767676767676767676767676767676767676767676767676
310
76767676767676767676767676767676767676767676767676767676767676767676767676767676767676767676767676767676767676767676767676767676767676767676767676767676767676767676767676767676767676767676767676767676767676767676767676767676767676767676767676767676767676
310
76767676767676767676767676767676767676767676767676767676767676767676767676E6E6E6E6E6E6E6E6E6E6E6E6E6E6E6E6E6E6E6E6E6E6E6E6E6E6E6E6E6E676E6E6E6E6E6E6E6E6E6E6E6E6E6E6E6E6E6E6E6E6E6E6E6E6E6E6E6E6E6E6E6E6E6E6E6E6E6E6E6E6E6E6E6E6E6E6E6E6E6E6E6E6E6E6E6E6E6E6E6
310
E6E6E6E6E6E6E6E6E6E6E6E6E6E6E6E6E6E6E6E6E6E6E6E6E6E6E6E6E6E6E6E6E6E6E6E6E6E6E6E6E6E6E6E6E6E6E6E6E6E6E6E6E6E6E6E6E6E6E6E6E6E6E6E6E6E6E6E6E6E6E6E6E6E6E6E6E6E6E6E6E6E6E6E6E6E6E6E6E6E6E6E6E6E6E6E6E6E6E6E6E6E6E6E6E6E6E6E6E6E6E6E6E6E6E6E6E6E6E6E6E6E6E6E6E6E6E6
310
E6E6E6E6E6E6E6E6E6E6E6E6E6E6E6E6E6E6E6E6E6E6E6E6E6E6E6E6E6E6E6E6E6E6E6E6E6E676E6E6E6E6E6E6E6E6E6E6E6E6E6E6E6E6E6E6E6E6E6E6E6E6E6E6E6E6E6E676E6E6E6E6E6E6E6E6E6E6E6E6E6E6E6E6E6E6E6E6E6E6E6E6E6E6E6E6E6E6E6E6E6E6E6E6E6E6E6E6E6E6E6E6E6E6E6E6E6E6E6E6E6E6E6E6E6
310
E6E6E6E6E6E6E6E6E6E6E6E6E6E6E6E6E6E6E6E6E6E6E6E6E6E6E6E6E6E6E6E6E6E6E6E6E6E6E6E6E6E6E6E6E6E6E6E6E6E6E6E6E6E6E6E6E6E6E6E6E6E6E6E6E6E6E6E6E6E6E6E6E6E6E6E6E6E6E6E6E6E6E6E6E6E6E6E6E6E6E6E6E6E6E6E6E6E6E6E6E6E6E6E6E6E6E6E6E6E6E6E6E6E6E6E6E6E6E6E6E6E6E6E6E6E6E6
310
E6E6E6E6E6E6E6E6E6E6E6E6E6E6E6E6E6E6E6E6E6E6E6E6E6E6E6E6E6E6E6E6E6E6E6E6E6E6E6E676E6E6E6E6E6E6E6E6E6E6E6E6E6E6E6E6E6E6E6E6E6E6E6E6E6E6E6E6E6E676E6E6E6E6E6E6E6E6E6E6E6E6E6E6E6E6E6E6E6E6E6E6E6E6E6E6E6E6E6E6E6E6E6E6E6E6E6E6E6E6E6E6E6E6E6E6E6E6E6E6E6E6E6E6E6
310
E6E6E6E6E6E6E6E6E6E6E6E6E6E6E6E6E6E6E6E6E6E6E6E6E6E6E6E6E6E6E6E6E6E6E6E6E6E6E6E6E6E6E6E6E6E6E6E6E6E6E6E6E6E6E6E6E6E6E6E6E6E6E6E6E6E6E6E6E6E6E6E6E6E6E6E6E6E6E6E6E6E6E6E6E6E6E6E6E6E6E6E6E6E6E6E6E6E6E6E6E6E6E6E6E6E6E6E6E6E6E6E6E6E6E6E6E6E6E6E6E6E6E6E6E6E6E6
310
E6E6E6E6E6E6E6E6E6E6E6E6E6E6E6E6E6E6E6E6E6E6E6E6E6E6E6E6E6E6E6E6E6E6E6E6E6E6E6E6E6E676E6E6E6E6E6E6E6E6E6E6E6E6E6E6E6E6E6E6E6E6E6E6E6E6E6E6E6E6E6E676E6E6E6E6E6E6E6E6E6E6E6E6E6E6E6E6E6E6E6E6E6E6E6E6E6E6E6E6E6E6E6E6E6E6E6E6E6E6E6E6E6E6E6E6E6E6E6E6E6E6E6E6E6
310
E6E6E6E6E6E6E6E6E6E6E6E6E6E6E6E6E6E6E6E6E6E6E6E6E6E6E6E6E6E6E6E6E6E6E6E6E6E6E6E6E6E6E6E6E6E6E6E6E6E6E6E6E6E6E6E6E6E6E6E6E6E6E6E6E6E6E6E6E6E6E6E6E6E6E6E6E6E6E6E6E6E6E6E6E6E6E6E6E6E6E6E6E6E6E6E6E6E6E6E6E6E6E6E6E6E6E6E6E6E6E6E6E6E6E6E6E6E6E6E6E6E6E6E6E6E6E6
310
E6E6E6E6E6E6E6E6E6E6E6E6E6E6E6E6E6E6E6E6E6E6E6E6E6E6E6E6E6E6E6E6E6E6E6E6E6E6E6E6E6E6E6E676E6E6E6E6E6E6E6E6E6E6E6E6E6E6E6E6E6E6E6E6E6E6E6E6E6E6E6E6E6E676E6E6E6E6E6E6E6E6E6E6E6E6E6E6E6E6E6E6E6E6E6E6E6E6E6E6E6E6E6E6E6E6E6E6E6E6E6E6E6E6E6E6E6E6E6E6E6E6E6E6E6
310
E6E6E6E6E6E6E6E6E6E6E6E6E6E6E6E6E6E6E6E6E6E6E6E6E6E6E6E6E6E6E6E6E6E6E6E6E6E6E6E6E6E6E6E6E6E6E6E6E6E6E6E6E6E6E6E6E6E6E6E6E6E6E6E6E6E6E6E6E6E6E6E6E6E6E6E6E6E6E6E6E6E6E6E6E6E6E6E6E6E6E6E6E6E6E6E6E6E6E6E6E6E6E6E6E6E6E6E6E6E6E6E6E6E6E6E6E6E6E6E6E6E6E6E6E6E6E6
310
E6E6E6E6E6E6E6E6E6E6E6E6E6E6E6E6E6E6E6E6E6E6E6E6E6E6E6E6E6E6E6E6E6E6E6E6E6E6E6E6E6E6E6E6E6E676E6E6E6E6E6E6E6E6E6E6E6E6E6E6E6E6E6E6E6E6E6E6E6E6E6E6E6E6E6E676E6E6E6E6E6E6E6E6E6E6E6E6E6E6E6E6E6E6E6E6E6E6E6E6E6E6E6E6E6E6E6E6E6E6E6E6E6E6E6E6E6E6E6E6E6E6E6E6E6
310
E6E6E6E6E6E6E6E6E6E6E6E6E6E6E6E6E6E6E6E6E6E6E6E6E6E6E6E6E6E6E6E6E6E6E6E6E6E6E6E6E6E6E6E6E6E6E6E6E6E6E6E6E6E6E6E6E6E6E6E6E6E6E6E6E6E6E6E6E6E6E6E6E6E6E6E6E6E6E6E6E6E6E6E6E6E6E6E6E6E6E6E6E6E6E6E6E6E6E6E6E6E6E6E6E6E6E6E6E6E6E6E6E6E6E6E6E6E6E6E6E6E6E6E6E6E6E6
310
E6E6E6E6E6E6E6E6E6E6E6E6E6E6E6E6E6E6E6E6E6E6E6E6E6E6E6E6E6E6E6E6E6E6E6E6E6E6E6E6E6E6E6E6E6E6E6E676E6E6E6E6E6E6E6E6E6E6E6E6E6E6E6E6E6E6E6E6E6E6E6E6E6E6E6E6E6E676E6E6E6E6E6E67676767676767676767676767676767676767676767676767676767676767676767676767676767676
310
76767676767676767676767676767676767676767676767676767676767676767676767676767676767676767676767676767676767676767676767676767676767676767676767676767676767676767676767676767676767676767676767676767676767676767676767676767676767676767676767676767676767676
310
7676767676767676767676767676767676767676767676767676767676767676767676767676767676767676E6E6E6E6E6E676E6E6E6E6E6E6E6E6E6E6E6E6E6E6E6E6E6E6E6E6E6E6E6E6E6E6E6E6E6E676E6E6E6E6E6E676E6E6E6E6E6E6E6E6E6E6E6E6E6E6E6E6E6E6E6E6E6E6E6E6E6E6E676E6E6E6E6E6E6E6E6E6E6
310
E6E6E6E6E6E6E6E6E6E6E6E6E6E6E6E6E6E6E6E6E6E6E6E676E6E6E6E6E6E6E6E6E6E6E6E6E6E6E6E6E6E6E6E6E6E6E6E6E6E6E6E6E6E6E6E6E6E676E6E6E6E6E6E6E6E6E6E6E6E6E6E6E6E6E6E6E6E6E6E6E6E6E6E6E6E6E6E6E6E6E6E676E6E6E6E6E6E6E6E6E6E6E6E6E6E6E6E6E6E6E6E6E6E6E6E6E6E6E6E6E6E6E6E6
310
E6E6E6E6E6E6E6E6E6E6E6E6E6E6E6E6E6E6E6E6E6E6E6E6E6E6E6E6E6E6E6E6E6E6E6E6E6E6767676E6E6E6E676E6E6E6E6E6E676E6E6E6E6E6E6E6E6E6E6E6E6E6E6E6E6E6E6E6E6E6E6E6E6E6E6E6E6E6E676E6E6E6E6E6E676E6E6E6E6E6E6E6E6E6E676E6E6E6E6E6E6E6E6E6E6E6E6E6E6E6E676E6E6E6E6E6E6E6E6
310
E6E6E6E6E6E6E6E6E676E6E6E6E6E6E6E6E6E6E6E6E6E6E6E6E676E6E6E6E6E6E6E6E6E6E6E6E6E6E6E6E6E676E6E6E6E6E6E6E6E6E6E6E6E6E6E6E6E676E6E6E6E6E6E6E6E6E6E6E6E6E6E6E6E6E676E6E6E6E6E6E6E6E6E6E6E6E6E6E6E6E67676E6E6E6E6E6E6E6E6E6E6E6E6E6E6E6E676E6E6E6E6E6E6E6E6E6E6E6E6
310
E6E6E6E6E6E6E6E6E6E6E6E6E6E6E6E6E6E6E6E6E6E6E6E6E6E6E6E6E6E6E6E6E6E6E6E6E6E6E6E6767676E676E6E676E6E6E6E6E6E676E6E6E6E6E6E6E6E6E6E6E6E6E6E6E6E6E6E6E6E6E6E6E6E6E6E6E6E6E6E676E6E6E6E6E6E676E6E6E6E6E6E6E6E67676767676767676767676767676767676767676767676767676
310
76767676767676767676767676767676767676767676767676767676767676767676767676767676767676767676767676767676767676767676767676767676767676767676767676767676767676767676767676767676767676767676767676767676767676767676767676767676767676767676767676767676767676
310
767676767676767676767676767676767676767676767676767676767676767676767676767676767676767676767676E676E6E6E6E6E6E676E6E6E6E6E6E6E6E6E6E6E6E6E6E6E6E6E6E6E6E6E6E6E6E6E6E6E6E6E6E676E6E6E6E6E6E676E6E6E6E6E6E6E6E6E67676E6E6E6E6E6E6E6E6E6E6E6E6E6E6E6E6E6E6E6E6E6
310
E6E6E6E6E6E6E6E6E6E6E6E6E6E6E6E6E6E6E6E6E6E6E6E6E6E6E6E6E6E6E6E6E6E6E6E6E6E6E6E6E6E6E6E6E6E6E6E6E6E6E6E6E6E6E6E6E6E6E6E6E6E6E6E6E6E6E6E6E6E6E6E6E6E6E6E6E6E676161616161616161616161616161616161616E6E6E6E6E6E6E6E6E6E6E6E6E6E6E6E6E6E6E6E6E6E6E676161616161616
310
16161616161616161676E616161616E6E6E6E6E6E6E6E6E6E6E6E6E6E6E6E6E6E6E6E6E6E6E6E6E6E6E6E6E6E6E6E6E676E6E676E6E6E6E6E6E676E6E6E6E6E6E6E6E6E6E6E6E6E6E6E6E6E6E6E6E6E6E6E6E6E6E6E6E6E6E676E6E6E6E6E6E676E6E6E6E6E6E6E6E6E67676E6E6E6E6E6E6E6E6E6E6E6E6E6E6E6E6E6E6E6
310
E6E6E6E6E6E6E6E6E6E6E6E6E6E6E6E6E6E6E6E6E6E6E6E6E6E6E6E6E6E6E6E6E6E6E6E6E6E6E6E6E6E6E6E6E6E6E6E6E6E6E6E6E6E6E6E6E6E6E6E6E6E6E6E6E6E6E6E6E6E6E6E6E6E6E6E6E6E6E6E676161616E616161616E6E6E6E6E616161616E6E6E6E6E6E6E6E6E6E6E6E6E6E6E6E6E6E6E6E6E6E6E6E67616161616
310
16161616161616161616E676E616161616E6E6E6E6E6E6E6E6E6E6E6E6E6E6E6E6E6E6E6E6E6E6E6E6E6E6E6E6E6E6E6E6E676E6E676E6E6E6E6E6E676E6E6E6E6E6E6E6E6E6E6E6E6E6E6E6E6E6E6E6E6E6E6E6E6E6E6E6E6E6E676E6E6E6E6E6E676E6E6E6E6E6E6E6E6E67676E6E6E6E6E6E6E6E6E6E6E6E6E6E6E6E6E6
310
E6E6E6E6E6E6E6E6E6E6E6E6E6E6E6E6E6E6E6E6E6E6E6E6E6E6E6E6E6E6E6E6E6E6E6E6E6E6E6E6E6E6E6E6E6E6E6E6E6E6E6E6E6E6E6E6E6E6E6E6E6E6E6E6E6E6E6E6E6E6E6E6E6E6E6E6E6E6E6E6E6E6767676767676767676767676767676767676767676767676767676767676767676767676767676767676767676
310
7676767676767676767676767676767676767676767676767676767676767676767676767676767676767676767676767676767676E6E676E6E6E6E6E6E676E6E6E6E6E6E6E6E6E6E6E6E6E6E6E6E6E6E6E6E6E6E6E6E6E6E6E6E6E6E676E6E6E6E6E6E676E6E6E6E6E6E6E6E6E67676E6E6E6E6E6E6E6E6E6E6E6E6E6E6E6
310
E6E6E6E6E6E6E6E6E6E6E6E6E6E6E6E6E6E6E6E6E6E6E6E6E6E6E6E6E6E6E6E6E6E6E6E6E6E6E6E6E6E6E6E6E6E6E6E6E6E6E6E6E6E6E6E6E6E6E6E6E6E6E6E6E6E6E6E6E6E6E6E6E6E6E6E6E6E6E6E6E6E6E6E676676767676767676767676767E6E6E6E6E6E6E6E6E6E6E6E6E6E6E6E6E6E6E6E6E6E6E6E6E6E6E6E6E676
310
E6E6E6E6E6E6E6E6E6E6E6E6E6E6E676E6E6676767676767676767676767E6E6E6E6E6E6E6E6E6E6E6E6E6E6E6E6E6E6E6E6E6E6E6E676E6E676E6E6E6E6E6E676E6E6E6E6E6E6E6E6E6E6E6E6E6E6E6E6E6E6E6E6E6E6E6E6E6E6E6E6E6E676E6E6E6E6E6E676E6E6E6E6E6E6E6E6E67676E6E6E6E6E6E6E6E6E6E6E6E6E6
310
E6E6E6E6E6E6E6E6E6E6E6E6E6E6E6E6E6E6E6E6E6E6E6E6E6E6E6E6E6E6E6E6E6E6E6E6E6E6E6E6E6E6E6E6E6E6E6E6E6E6E6E6E6E6E6E6E6E6E6E6E6E6E6E6E6E6E6E6E6E6E6E6E6E6E6E6E6E6E6E6E6E6E6E6E6E676676767E66767676767676767E6E6E6E6E6E6E6E6E6E6E6E6E6E6E6E6E6E6E6E6E6E6E6E6E6E6E6E6
310
E676E6E6E6E6E6E6E6E6E6E6E6E6E6E6E676E6E66767E6676767E6676767E667E6E6E6E6E6E6E6E6E6E6E6E6E6E6E6E6E6E6E6E6E6E6E6E676E6E676E6E6E6E6E6E676E6E6E6E6E6E6E6E6E6E6E6E6E6E6E6E6E6E6E6E6E6E6E6E6E6E6E6E6E6E676E6E6E6E6E6E676E6E6E6E6E6E6E6E6E67676E6E6E6E6E6E6E6E6E6E6E6
310
E6E6E6E6E6E6E6E6E6E6E6E6E6E6E6E6E6E6E6E6E6E6E6E6E6E6E6E6E6E6E6E6E6E6E6E6E6E6E6E6E6E6E6E6E6E6E6E6E6E6E6E6E6E6E6E6E6E6E6E6E6E6E6E6E6E6E6E6E6E6E6E6E6E6E6E6E6E6E6E6E6E6E6E6E6E6E6E67667E667E66767E66767676767E6E6E6E6E6E6E6E6E6E6E6E6E6E6E6E6E6E6E6E6E6E6E6E6E6E6
310
E6E6E67676767676767676767676767676767676E6E66767E6676767E66767676767E6E6E6E6E6E6E6E6E6E6E6E6E6E6E6E6E6E6E6E6E6E6E6E676E6E676E6E6E6E6E6E676E6E6E6E6E6E6E6E6E6E6E6E6E6E6E6E6E6E6E6E6E6E6E6E6E6E6E6E6E6E676E6E6E6E6E6E676E6E6E6E6E6E6E6E6E67676E6E6E6E6E6E6E6E6E6
310
E6E6E6E6E6E6E6E6E6E6E6E6E6E6E6E6E6E6E6E6E6E6E6E6E6E6E6E6E6E6E6E6E6E6E6E6E6E6E6E6E6E6E6E6E6E6E6E6E6E6E6E6E6E6E6E6E6E6E6E6E6E6E6E6E6E6E6E6E6E6E6E6E6E6E6E6E6E6E6E6E6E6E6E6E6E6E6E6E6E6766767676767676767676767676767676767676767E6E6E6E6E6E6E6E6E6E6E6E6E6E6E6E6
310
E6E6E6E6E67616161676E6E6E6E6E676E6E6E6E6E676E6E616161616161616E6E6E6E6E6E6E6E6E6E6E6E6E6E6E6E6E6E6E6E6E6E6E6E6E6E6E6E6E676E6E676E6E6E6E6E6E676E6E6E6E6E6E6E6E6E6E6E6E6E6E6E6E6E6E6E6E6E6E6E6E6E6E6E6E6E6E676E6E6E6E6E6E676E6E6E6E6E6E6E6E6E67676E6E6E6E6E6E6E6
310
E6E6E6E6E6E6E6E6E6E6E6E6E6E6E6E6E6E6E6E6E6E6E6E6E6E6E6E6E6E6E6E6E6E6E6E6E6E6E6E6E6E6E6E6E6E6E6E6E6E6E6E6E6E6E6E6E6E6E6E6E6E6E6E6E6E6E6E6E6E6E6E6E6E6E6E6E6E6E6E6E6E6E6E6E6E6E6E6E6E6E6E6766767676767676767676767676767676767676767E6E6E6E6E6E6E6E6E6E6E6E6E6E6
310
E6E6E6E6E6E6E67616767628282828282876767676767676767616161676761616767676767676767676767676767676767676767676767676767676767676E6E676E6E6E6E6E6E676E6E6E6E6E6E6E6E6E6E6E6E6E6E6E6E6E6E6E6E6E6E6E6E6E6E6E6E6E6E676E6E6E6E6E6E676E6E6E6E6E6E6E6E6E67676E6E6E6E6E6
310
E6E6E6E6E6E6E6E6E6E6E6E6E6E6E6E6E6E6E6E6E6E6E6E6E6E6E6E6E6E6E6E6E6E6E6E6E6E6E6E6E6E6E6E6E6E6E6E6E6E6E6E6E6E6E6E6E6E6E6E6E6E6E6E6E6E6E6E6E6E6E6E6E6E6E6E6E6E6E6E6E6E6E6E6E6E6E6E6E6E6E6E6E6E67667676767E6E6E6E6676767E667E6E6E667E667E6E6E6E6E6E6E6E6E6E6E6E6E6
310
E6E6E6E6E6E6E6E6E6761616E628282828282876282828282876E6E6E6E6E6E6E6E6E6E6E6E6E6E6E6E6E6E62828282828E6E6E6E6E6E6E6E6E6E6E6E6E6E6E676E6E676E6E6E6E6E6E676E6E6E6E6E6E6E6E6E6E6E6E6E6E6E6E6E6E6E6E6E6E6E6E6E6E6E6E6E6E676E6E6E6E6E6E676E6E6E6E6E6E6E6E6E67676E6E6E6
310
E6E6E6E6E6E6E6E6E6E6E6E6E6E6E6E6E6E6E6E6E6E6E6E6E6E6E6E6E6E6E6E6E6E6E6E6E6E6E6E6E6E6E6E6E6E6E6E6E6E6E6E6E6E6E6E6E6E6E6E6E6E6E6E6E6E6E6E6E6E6E6E6E6E6E6E6E6E6E6E6E6E6E6E6E6E6E6E6E6E6E6E6E6E6E6E6766767676767676767676767676767676767676767676767676767E6E6E6E6
310
E6E6E6E6E6E6E6E6E6E6E67616167676767676767676767676767676E6E6E6E6E6E6E6F5F5F5F5F5F5F5F5F5F5E62828282828E6E6E6E6E6E6E6E6E6E6E6E6E6E6E676E6E676E6E6E6E6E6E676E6E6E6E6E6E6E6E6E6E6E6E6E6E6E6E6E6E6E6E6E6E6E6E6E6E6E6E6E6E676E6E6E6E6E6E676E6E6E6E6E6E6E6E6E67676E6
310
E6E6E6E6E6E6E6E6E6E6E6E6E6E6E6E6E6E6E6E6E6E6E6E6E6E6E6E6E6E6E6E6E6E6E6E6E6E6E6E6E6E6E6E6E6E6E6E6E6E6E6E6E6E6E6E6E6E6E6E6E6E6E6E6E6E6E6E6E6E6E6E6E6E6E6E6E6E6E6E6E6E6E6E6E6E6E6E6E6E6E6E6E6E6E6E6E6E67667676767671667676767E6E66767E6E667E6E667E667E6676767E6E6
310
E6E6E6E6E6E6E6E6E6E6E6E6E6761616E628282828282876282828282876E6E6E6E6BEBEBEF5F5F5F5F5F5F5F5F5F5E62828282828E6E6E6E6E6E6E6E6E6E6E6E6E6E6E676E6E676E6E6E6E6E6E676E6E6E6E6E6E6E6E6E6E6E6E6E6E6E6E6E6E6E6E6E6E6E6E6E6E6E6E6E6E676E6E6E6E6E6E676E6E6E6E6E6E6E6E6E676
310
76E6E6E6E6E6E6E6E6E6E6E6E6E6E6E6E6E6E6E6E6E6E6E6E6E6E6E6E6E6E6E6E6E6E6E6E6E6E6E6E6E6E6E6E6E6E6E6E6E6E6E6E6E6E6E6E6E6E6E6E6E6E6E6E6E6E6E6E6E6E6E6E6E6E6E6E6E6E6E6E6E6E6E6E6E6E6E6E6E6E6E6E6E6E6E6E6E6E6E67616161616161616E6E6E6E6E6E6E6E6E6E6E6E6E6E6E6E6E6E6E6
310
E6E6E6E6E6E6E6E6E6E6E6E6E6E6E67616767676767676767676767676767676E6E6E6E6BEBEBEE6E6E6E6E6E6E6E6E6E66728282828282828676767E6E6E6E6E6E6E6E6E6E676E6E676E6E6E6E6E6E676E6E6E6E6E6E6E6E6E6E6E6E6E6E6E6E6E6E6E6E6E6E6E6E6E6E6E6E6E6E676E6E6E6E6E6E676E6E6E6E6E6E6E6E6
310
E67676E6E6E6E6E6E6E6E6E6E6E6E6E6E6E6E6E6E6E6E6E6E6E6E6E6E6E6E6E6E6E6E6E6E6E6E6E6E6E6E6E6E6E6E6E6E6E6E6E6E6E6E6E6E6E6E6E6E6E6E6E6E6E6E6E6E6E6E6E6E6E6E6E6E6E6E6E6E6E6E6E6E6E6E6E6E6E6E6E6E6E6E6E6E6E6E6E6E6E67616E6E6E6E6E6E6E6E6E6E6E6E6E6E6E6E6E6E6E6E6E6E6E6
310
E6E6E6E6E6E6E6E6E6E6E6E6E6E6E6E6E676E6E6E67616161616E676E6161616E676E6E6E6E6BEBEBEE6E6E6E6E6E6E6E6E6E66767676767676767676767E6E6E6E6E6E6E6E6E6E676E6E676E6E6E6E6E6E676E6E6E6E6E6E6E6E6E6E6E6E6E6E6E6E6E6E6E6E6E6E6E6E6E6E6E6E6E6E676E6E6E6E6E6E676E6E6E6E6E6E6
310
E6E6E67676E6E6E6E6E6E6E6E6E6E6E6E6E6E6E6E6E6E6E6E6E6E6E6E6E6E6E6E6E6E6E6E6E6E6E6E6E6E6E6E6E6E6E6E6E6E6E6E6E6E6E6E6E6E6E6E6E6E6E6E6E6E6E6E6E6E6E6E6E6E6E6E6E6E6E6E6E6E6E6E6E6E6E6E6E6E6E6E6E6E6E6E6E6E6E6E6E6E6E67676767676767676767676767676767676767676767676
310
767676767676767676767676767676767676767676767676767676767676767676767676767676767676767676767676767676767676767676767676767676767676767676767676767676E6E676E6E6E6E6E6E676E6E6E6E6E6E6E6E6E6E6E6E6E6E6E6E6E6E6E6E6E6E6E6E6E6E6E6E6E6E676E6E6E6E6E6E676E6E6E6E6
310
E6E6E6E6E67676E6E6E6E6E6E6E6E6E6E6E6E6E6E6E6E6E6E6E6E6E6E6E6E6E6E6E6E6E6E6E6E6E6E6E6E6E6E6E6E6E6E6E6E6E6E6E6E6E6E6E6E6E6E6E6E6E6E6E6E6E6E6E6E6E6E6E6E6E6E6E6E6E6E6E6E6E6E6E6E6E6E6E6E6E6E6E6E6E6E6E6E6E6E6E6E6E6E6E6E6E6E6E6E6E6E6E6E6E6E6E6E6E6E6E6E6E6E6E6E6
310
E6E6E6E6E6E6E6E6E6E6E6E6E6E6E6E6E6E6E6E6E6E6E6E6E6E6E6E6E6E6E6E6E6E6E6E6E6E6E6E6E6E6E6E6E6E6E6E6E6E6E6E6E6E6E6E6E6E6E6E6E6E6E6E6E6E6E6E6E6E6E6E6E6E6E6E676E6E676E6E6E6E6E6E676E6E6E6E6E6E6E6E6E6E6E6E6E6E6E6E6E6E6E6E6E6E6E6E6E6E6E6E6E6E676E6E6E6E6E6E676E6E6
310
E6E6E6E6E6E6E67676E6E6E6E6E6E6E6E6E6E6E6E6E6E6E6E6E6E6E6E6E6E6E6E6E6E6E6E6E6E6E6E6E6E6E6E6E6E6E6E6E6E6E6E6E6E6E6E6E6E6E6E6E6E6E6E6E6E6E6E6E6E6E6E6E6E6E6E6E6E6E6E6E6E6E6E6E6E6E6E6E6E6E6E6E6E6E6E6E6E6E6E6E6E6E6E6E6E6E6E6E6E6E6E6E6E6E6E6E6E6E6E6E6E6E6E6E6E6
310
E6E6E6E6E6E6E6E6E6E6E6E6E6E6E6E6E6E6E6E6E6E6E6E6E6E6E6E6E6E6E6E6E6E6E6E6E6E6E6E6E6E6E6E6E6E6E6E6E6E6E6E6E6E6E6E6E6E6E6E6E6E6E6E6E6E6E6E6E6E6E6E6E6E6E6E6E6E676E6E676E6E6E6E6E6E676E6E6E6E6E6E6E6E6E6E6E6E6E6E6E6E6E6E6E6E6E6E6E6E6E6E6E6E6E6E676E6E6E6E6E6E676
310
E6E6E6E6E6E6E6E6E67676E6E6E6E6E6E6E6E6E6E6E6E6E6E6E6E6E6E6E6E6E6E6E6E6E6E6E6E6E6E6E6E6E6E6E6E6E6E6E6E6E6E6E6E6E6E6E6E6E6E6E6E6E6E6E6E6E6E6E6E6E6E6E6E6E6E6E6E6E6E6E6E6E6E6E6E6E6E6E6E6E6E6E6E6E6E6E6E6E6E6E6E6E6E6E6E6E6E6E6E6E6E6E6E6E6E6E6E6E6E6E6E6E6E6E6E6
310
E6E6E6E6E6E6E6E6E6E6E6E6E6E6E6E6E6E6E6E6E6E6E6E6E6E6E6E6E6E6E6E6E6E6E6E6E6E6E6E6E6E6E6E6E6E6E6E6E6E6E6E6E6E6E6E6E6E6E6E6E6E6E6E6E6E6E6E6E6E6E6E6E6E6E6E6E6E6E6E676E6E676E6E6E6E6E6E676E6E6E6E6E6E6E6E6E6E6E6E6E6E6E6E6E6E6E6E6E6E6E6E6E6E6E6E6E6E676E6E6E6E6E6
310
E676E6E6E6E6E6E6E6E6767676E6E6E6E6E6E6E6E6E6E6E6E6E6E6E6E6E6E6E6E6E6E6E6E6E6E6E6E6E6E6E6E6E6E6E6E6E6E6E6E6E6E6E6E6E6E6E6E6E6E6E6E6E6E6E6E6E6E6E6E6E6E6E6E6E6E6E6E6E6E6E6E6E6E6E6E6E6E6E6E6E6E6E6E6E6E6E6E6E6E6E6E6E6E6E6E6E6E6E6E6E6E6E6E6E6E6E6E6E6E6E6E6E6E6
310
E6E6E6E6E6E6E6E6E6E6E6E6E6E6E6E6E6E6E6E6E6E6E6E6E6E6E6E6E6E6E6E6E6E6E6E6E6E6E6E6E6E6E6E6E6E6E6E6E6E6E6E6E6E6E6E6E6E6E6E6E6E6E6E6E6E6E6E6E6E6E6E6E6E6E6E6E6E6E6E6E6E676767676E6E6E6E6E6E676E6E6E6E6E6E6E6E6E6E6E6E6E6E6E6E6E6E6E6E6E6E6E6E6E6E6E6E6E6E676E6E6E6
310
E6E6E676E6E6E6E6E6E6E6E6767676E6E6E6E6E6E6E6E6E6E6E6E6E6E6E6E6E6E6E6E6E6E6E6E6E6E6E6E6E6E6E6E6E6E6E6E6E6E6E6E6E6E6E6E6E6E6E6E6E6E6E6E6E6E6E6E6E6E6E6E6E6E6E6E6E6E6E6E6E6E6E6E6E6E6E6E6E6E6E6E6E6E6E6E6E6E6E6E6E6E6E6E6E6E6E6E6E6E6E6E6E6E6E6E6E6E6E6E6E6E6E6E6
310
E6E6E6E6E6E6E6E6E6E6E6E6E6E6E6E6E6E6E6E6E6E6E6E6E6E6E6E6E6E6E6E6E6E6E6E6E6E6E6E6E6E6E6E6E6E6E6E6E6E6E6E6E6E6E6E6E6E6E6E6E6E6E6E6E6E6E6E6E6E6E6E6E6E6E6E6E6E6E6E6E6E6E6E67676E676E6E6E6E6E6E676E6E6E6E6E6E6E6E6E6E6E6E6E6E6E6E6E6E6E6E6E6E6E6E6E6E6E6E6E6E676E6
310
E6E6E6E6E676E6E6E6E6E6E6E6E6E67676E6E6E6E6E6E6E6E6E6E6E6E6E6E6E6E6E6E6E6E6E6E6E6E6E6E6E6E6E6E6E6E6E6E6E6E6E6E6E6E6E6E6E6E6E6E6E6E6E6E6E6E6E6E6E6E6E6E6E6E6E6E6E6E6E6E6E6E6E6E6E6E6E6E6E6E6E6E6E6E6E6E6E6E6E6E6E6E6E6E6E6E6E6E6E6E6E6E6E6E6E6E6E6E6E6E6E6E6E6E6
310
E6E6E6E6E6E6E6E6E6E6E6E6E6E6E6E6E6E6E6E6E6E6E6E6E6E6E6E6E6E6E6E6E6E6E6E6E6E6E6E6E6E6E6E6E6E6E6E6E6E6E6E6E6E6E6E6E6E6E6E6E6E6E6E6E6E6E6E6E6E6E6E6E6E6E6E6E6E6E6E6E6E6E6E6E6E676E6E676E6E6E6E6E6E676E6E6E6E6E6E6E6E6E6E6E6E6E6E6E6E6E6E6E6E6E6E6E6E6E6E6E6E6E6E6
310
76E6E6E6E6E6E676E6E6E6E6E6E6E6E6E67676E6E6E6E6E6E6E6E6E6E6E6E6E6E6E6E6E6E6E6E6E6E6E6E6E6E6E6E6E6E6E6E6E6E6E6E6E6E6E6E6E6E6E6E6E6E6E6E6E6E6E6E6E6E6E6E6E6E6E6E6E6E6E6E6E6E6E6E6E6E6E6E6E6E6E6E6E6E6E6E6E6E6E6E6E6E6E6E6E6E6E6E6E6E6E6E6E6E6E6E6E6E6E6E6E6E6E6E6
310
E6E6E6E6E6E6E6E6E6E6E6E6E6E6E6E6E6E6E6E6E6E6E6E6E6E6E6E6E6E6E6E6E6E6E6E6E6E6E6E6E6E6E6E6E6E6E6E6E6E6E6E6E6E6E6E6E6E6E6E6E6E6E6E6E6E6E6E6E6E6E6E6E6E6E6E6E6E6E6E6E6E6E6E6E6E6E6E676E6E676E6E6E6E6E6E676E6E6E6E6E6E6E6E6E6E6E6E6E6E6E6E6E6E6E6E6E6E6E6E6E6E6E6E6
310
E6E676E6E6E6E6E6E676E6E6E6E6E6E6E6E6E67676E6E6E6E6E6E6E6E6E6E6E6E6E6E6E6E6E6E6E6E6E6E6E6E6E6E6E6E6E6E6E6E6E6E6E6E6E6E6E6E6E6E6E6E6E6E6E6E6E6E6E6E6E6E6E6E6E6E6E6E6E6E6E6E6E6E6E6E6E6E6E6E6E6E6E6E6E6E6E6E6E6E6E6E6E6E6E6E6E6E6E6E6E6E6E6E6E6E6E6E6E6E6E6E6E6E6
310
E6E6E6E6E6E6E6E6E6E6E6E6E6E6E6E6E6E6E6E6E6E6E6E6E6E6E6E6E6E6E6E6E6E6E6E6E6E6E6E6E6E6E6E6E6E6E6E6E6E6E6E6E6E6E6E6E6E6E6E6E6E6E6E6E6E6E6E6E6E6E6E6E6E6E6E6E6E6E6E6E6E6E6E6E6E6E6E6E6E676E6E676E6E6E6E6E6E676E6E6E6E6E6E6E6E6E6E6E6E6E6E6E6E6E6E6E6E6E6E6E6E6E6E6
310
E6E6E6E676E6E6E6E6E6E676E6E6E6E6E6E6E6E6E67676E6E6E6E6E6E6E6E6E6E6E6E6E6E6E6E6E6E6E6E6E6E6E6E6E6E6E6E6E6E6E6E6E6E6E6E6E6E6E6E6E6E6E6E6E6E6E6E6E6E6E6E6E6E6E6E6E6E6E6E6E6E6E6E6E6E6E6E6E6E6E6E6E6E6E6E6E6E6E6E6E6E6E6E6E6E6E6E6E6E6E6E6E6E6E6E6E6E6E6E6E6E6E6E6
310
E6E6E6E6E6E6E6E6E6E6E6E6E6E6E6E6E6E6E6E6E6E6E6E6E6E6E6E6E6E6E6E6E6E6E6E6E6E6E6E6E6E6E6E6E6E6E6E6E6E6E6E6E6E6E6E6E6E6E6E6E6E6E6E6E6E6E6E6E6E6E6E6E6E6E6E6E6E6E6E6E6E6E6E6E6E6E6E6E6E6E6E676E6E676E6E6E6E6E6E676E6E6E6E6E6E6E6E6E6E6E6E6E6E6E6E6E6E6E6E6E6E6E6E6
310
E6E6E6E6E6E676E6E6E6E6E6E676E6E6E6E6E6E6E6E6E67676E6E6E6E6E6E6E6E6E6E6E6E6E6E6E6E6E6E6E6E6E6E6E6E6E6E6E6E6E6E6E6E6E6E6E6E6E6E6E6E6E6E6E6E6E6E6E6E6E6E6E6E6E6E6E6E6E6E6E6E6E6E6E6E6E6E6E6E6E6E6E6E6E6E6E6E6E6E6E6E6E6E6E6E6E6E6E6E6E6E6E6E6E6E6E6E6E6E6E6E6E6E6
310
E6E6E6E6E6E6E6E6E6E6E6E6E6E6E6E6E6E6E6E6E6E6E6E6E6E6E6E6E6E6E6E6E6E6E6E6E6E6E6E6E6E6E6E6E6E6E6E6E6E6E6E6E6E6E6E6E6E6E6E6E6E6E6E6E6E6E6E6E6E6E6E6E6E6E6E6E6E6E6E6E6E6E6E6E6E6E6E6E6E6E6E6E6E676E6E676E6E6E6E6E6E676E6E6E6E6E6E6E6E6E6E6E6E6E6E6E6E6E6E6E6E6E6E6
310
E6E6E6E6E6E6E6E676E6E6E6E6E6E676E6E6E6E6E6E6E6E6E67676E6E6E6E6E6E6E6E6E6E6E6E6E6E6E6E6E6E6E6E6E6E6E6E6E6E6E6E6E6E6E6E6E6E6E6E6E6E6E6E6E6E6E6E6E6E6E6E6E6E6E6E6E6E6E6E6E6E6E6E6E6E6E6E6E6E6E6E6E6E6E6E6E6E6E6E6E6E6E6E6E6E6E6E6E6E6E6E6E6E6E6E6E6E6E6E6E6E6E6E6
310
E6E6E6E6E6E6E6E6E6E6E6E6E6E6E6E6E6E6E6E6E6E6E6E6E6E6E6E6E6E6E6E6E6E6E6E6E6E6E6E6E6E6E6E6E6E6E6E6E6E6E6E6E6E6E6E6E6E6E6E6E6E6E6E6E6E6E6E6E6E6E6E6E6E6E6E6E6E6E6E6E6E6E6E6E6E6E6E6E6E6E6E6E6E6E6E676E6E676E6E6E6E6E6E676E6E6E6E6E6E6E6E6E6E6E6E6E6E6E6E6E6E6E6E6
310
E6E6E6E6E6E6E6E6E6E676E6E6E6E6E6E676E6E6E6E6E6E6E6E6E67676E6E6E6E6E6E6E6E6E6E6E6E6E6E6E6E6E6E6E6E6E6E6E6E6E6E6E6E6E6E6E6E6E6E6E6E6E6E6E6E6E6E6E6E6E6E6E6E6E6E6E6E6E6E6E6E6E6E6E6E6E6E6E6E6E6E6E6E6E6E6E6E6E6E6E6E6E6E6E6E6E6E6E6E6E6E6E6E6E6E6E6E6E6E6E6E6E6E6
310
E6E6E6E6E6E6E6E6E6E6E6E6E6E6E6E6E6E6E6E6E6E6E6E6E6E6E6E6E6E6E6E6E6E6E6E6E6E6E6E6E6E6E6E6E6E6E6E6E6E6E6E6E6E6E6E6E6E6E6E6E6E6E6E6E6E6E6E6E6E6E6E6E6E6E6E6E6E6E6E6E6E6E6E6E6E6E6E6E6E6E6E6E6E6E6E6E6E676E6E676E6E6E6E6E6E676E6E6E6E6E6E6E6E6E6E6E6E6E6E6E6E6E6E6
310
E6E6E6E6E6E6E6E6E6E6E6E676E6E6E6E6E6E676E6E6E6E6E6E6E6E6E67676E6E6E6E6E6E6E6E6E6E6E6E6E6E6E6E6E6E6E6E6E6E6E6E6E6E6E6E6E6E6E6E6E6E6E6E6E6E6E6E6E6E6E6E6E6E6E6E6E6E6E6E6E6E6E6E6E6E6E6E6E6E6E6E6E6E6E6E6E6E6E6E6E6E6E6E6E6E6E6E6E6E6E6E6E6E6E6E6E6E6E6E6E6E6E6E6
310
E6E6E6E6E6E6E6E6E6E6E6E6E6E6E6E6E6E6E6E6E6E6E6E6E6E6E6E6E6E6E6E6E6E6E6E6E6E6E6E6E6E6E6E6E6E6E6E6E6E6E6E6E6E6E6E6E6E6E6E6E6E6E6E6E6E6E6E6E6E6E6E6E6E6E6E6E6E6E6E6E6E6E6E6E6E6E6E6E6E6E6E6E6E6E6E6E6E6E6E676E6E676E6E6E6E6E6E676E6E6E6E6E6E6E6E6E6E6E6E6E6E6E6E6
310
E6E6E6E6E6E6E6E6E6E6E6E6E6E676E6E6E6E6E6E676E6E6E6E6E6E6E6E6E67676E6E6E6E6E6E6E6E6E6E6E6E6E6E6E6E6E6E6E6E6E6E6E6E6E6E6E6E6E6E6E6E6E6E6E6E6E6E6E6E6E6E6E6E6E6E6E6E6E6E6E6E6E6E6E6E6E6E6E6E6E6E6E6E6E6E6E6E6E6E6E6E6E6E6E6E6E6E6E6E6E6E6E6E6E6E6E6E6E6E6E6E6E6E6
310
E6E6E6E6E6E6E6E6E6E6E6E6E6E6E6E6E6E6E6E6E6E6E6E6E6E6E6E6E6E6E6E6E6E6E6E6E6E6E6E6E6E6E6E6E6E6E6E6E6E6E6E6E6E6E6E6E6E6E6E6E6E6E6E6E6E6E6E6E6E6E6E6E6E6E6E6E6E6E6E6E6E6E6E6E6E6E6E6E6E6E6E6E6E6E6E6E6E6E6E6E6E676E6E676E6E6E6E6E6E676E6E6E6E6E6E6E6E6E6E6E6E6E6E6
310
E6E6E6E6E6E6E6E6E6E6E6E6E6E6E6E676E6E6E6E6E6E676E6E6E6E6E6E6E6E6E67676E6E6E6E6E6E6E6E6E6E6E6E6E6E6E6E6E6E6E6E6E6E6E6E6E6E6E6E6E6E6E6E6E6E6E6E6E6E6E6E6E6E6E6E6E6E6E6E6E6E6E6E6E6E6E6E6E6E6E6E6E6E6E6E6E6E6E6E6E6E6E6E6E6E6E6E6E6E6E6E6E6E6E6E6E6E6E6E6E6E6E6E6
310
E6E6E6E6E6E6E6E6E6E6E6E6E6E6E6E6E6E6E6E6E6E6E6E6E6E6E6E6E6E6E6E6E6E6E6E6E6E6E6E6E6E6E6E6E6E6E6E6E6E6E6E6E6E6E6E6E6E6E6E6E6E6E6E6E6E6E6E6E6E6E6E6E6E6E6E6E6E6E6E6E6E6E6E6E6E6E6E6E6E6E6E6E6E6E6E6E6E6E6E6E6E6E6E676E6E676E6E6E6E6E6E676E6E6E6E6E6E6E6E6E6E6E6E6
310
E6E6E6E6E6E6E6E6E6E6E6E6E6E6E6E6E6E676E6E6E6E6E6E676E6E6E6E6E6E6E6E6E67676E6E6E6E6E6E6E6E6E6E6E6E6E6E6E6E6E6E6E6E6E6E6E6E6E6E6E6E6E6E6E6E6E6E6E6E6E6E6E6E6E6E6E6E6E6E6E6E6E6E6E6E6E6E6E6E6E6E6E6E6E6E6E6E6E6E6E6E6E6E6E6E6E6E6E6E6E6E6E6E6E6E6E6E6E6E6E6E6E6E6
310
E6E6E6E6E6E6E6E6E6E6E6E6E6E6E6E6E6E6E6E6E6E6E6E6E6E6E6E6E6E6E6E6E6E6E6E6E6E6E6E6E6E6E6E6E6E6E6E6E6E6E6E6E6E6E6E6E6E6E6E6E6E6E6E6E6E6E6E6E6E6E6E6E6E6E6E6E6E6E6E6E6E6E6E6E6E6E6E6E6E6E6E6E6E6E6E6E6E6E6E6E6E6E6E6E6E676E6E676E6E6E6E6E6E676E6E6E6E6E6E6E6E6E6E6
310
E6E6E6E6E6E6E6E6E6E6E6E6E6E6E6E6E6E6E6E676E6E6E6E6E6E676E6E6E6E6E6E6E6E6E67676E6E6E6E6E6E6E6E6E6E6E6E6E6E6E6E6E6E6E6E6E6E6E6E6E6E6E6E6E6E6E6E6E6E6E6E6E6E6E6E6E6E6E6E6E6E6E6E6E6E6E6E6E6E6E6E6E6E6E6E6E6E6E6E6E6E6E6E6E6E6E6E6E6E6E6E6E6E6E6E6E6E6E6E6E6E6E6E6
310
E6E6E6E6E6E6E6E6E6E6E6E6E6E6E6E6E6E6E6E6E6E6E6E6E6E6E6E6E6E6E6E6E6E6E6E6E6E6E6E6E6E6E6E6E6E6E6E6E6E6E6E6E6E6E6E6E6E6E6E6E6E6E6E6E6E6E6E6E6E6E6E6E6E6E6E6E6E6E6E6E6E6E6E6E6E6E6E6E6E6E6E6E6E6E6E6E6E6E6E6E6E6E6E6E6E6E6E676E6E676E6E6E6E6E6E676E6E6E6E6E6E6E6E6
310
E6E6E6E6E6E6E6E6E6E6E6E6E6E6E6E6E6E6E6E6E6E676E6E6E6E6E6E676E6E6E6E6E6E6E6E6E67676E6E6E6E6E6E6E6E6E6E6E6E6E6E6E6E6E6E6E6E6E6E6E6E6E6E6E6E6E6E6E6E6E6E6E6E6E6E6E6E6E6E6E6E6E6E6E6E6E6E6E6E6E6E6E6E6E6E6E6E6E6E6E6E6E6E6E6E6E6E6E6E6E6E6E6E6E6E6E6E6E6E6E6E6E6E6
310
E6E6E6E6E6E6E6E6E6E6E6E6E6E6E6E6E6E6E6E6E6E6E6E6E6E6E6E6E6E6E6E6E6E6E6E6E6E6E6E6E6E6E6E6E6E6E6E6E6E6E6E6E6E6E6E6E6E6E6E6E6E6E6E6E6E6E6E6E6E6E6E6E6E6E6E6E6E6E6E6E6E6E6E6E6E6E6E6E6E6E6E6E6E6E6E6E6E6E6E6E6E6E6E6E6E6E6E6E6E676E6E676E6E6E6E6E6E676E6E6E6E6E6E6
310
E6E6E6E6E6E6E6E6E6E6E6E6E6E6E6E6E6E6E6E6E6E6E6E676E6E6E6E6E6E676E6E6E6E6E6E6E6E6E67676E6E6E6E6E6E6E6E6E6E6E6E6E6E6E6E6E6E6E6E6E6E6E6E6E6E6E6E6E6E6E6E6E6E6E6E6E6E6E6E6E6E6E6E6E6E6E6E6E6E6E6E6E6E6E6E6E6E6E6E6E6E6E6E6E6E6E6E6E6E6E6E6E6E6E6E6E6E6E6E6E6E6E6E6
310
E6E6E6E6E6E6E6E6E6E6E6E6E6E6E6E6E6E6E6E6E6E6E6E6E6E6E6E6E6E6E6E6E6E6E6E6E6E6E6E6E6E6E6E6E6E6E6E6E6E6E6E6E6E6E6E6E6E6E6E6E6E6E6E6E6E6E6E6E6E6E6E6E6E6E6E6E6E6E6E6E6E6E6E6E6E6E6E6E6E6E6E6E6E6E6E6E6E6E6E6E6E6E6E6E6E6E6E6E6E6E6E676E6E676E6E6E6E6E6E676E6E6E6E6
310
E6E6E6E6E6E6E6E6E6E6E6E6E6E6E6E6E6E6E6E6E6E6E6E6E6E676E6E6E6E6E6E676E6E6E6E6E6E6E6E6E67676E6E6E6E6E6E6E6E6E6E6E6E6E6E6E6E6E6E6E6E6E6E6E6E6E6E6E6E6E6E6E6E6E6E6E6E6E6E6E6E6E6E6E6E6E6E6E6E6E6E6E6E6E6E6E6E6E6E6E6E6E6E6E6E6E6E6E6E6E6E6E6E6E6E6E6E6E6E6E6E6E6E6
310
E6E6E6E6E6E6E6E6E6E6E6E6E6E6E6E6E6E6E6E6E6E6E6E6E6E6E6E6E6E6E6E6E6E6E6E6E6E6E6E6E6E6E6E6E6E6E6E6E6E6E6E6E6E6E6E6E6E6E6E6E6E6E6E6E6E6E6E6E6E6E6E6E6E6E6E6E6E6E6E6E6E6E6E6E6E6E6E6E6E6E6E6E6E6E6E6E6E6E6E6E6E6E6E6E6E6E6E6E6E6E6E6E6E676E6E676E6E6E6E6E6E676E6E6
310
E6E6E6E6E6E6E6E6E6E6E6E6E6E6E6E6E6E6E6E6E6E6E6E6E6E6E6E676E6E6E6E6E6E676E6E6E6E6E6E6E6E6E67676E6E6E6E6E6E6E6E6E6E6E6E6E6E6E6E6E6E6E6E6E6E6E6E6E6E6E6E6E6E6E6E6E6E6E6E6E6E6E6E6E6E6E6E6E6E6E6E6E6E6E6E6E6E6E6E6E6E6E6E6E6E6E6E6E6E6E6E6E6E6E6E6E6E6E6E6E6E6E6E6
310
E6E6E6E6E6E6E6E6E6E6E6E6E6E6E6E6E6E6E6E6E6E6E6E6E6E6E6E6E6E6E6E6E6E6E6E6E6E6E6E6E6E6E6E6E6E6E6E6E6E6E6E6E6E6E6E6E6E6E6E6E6E6E6E6E6E6E6E6E6E6E6E6E6E6E6E6E6E6E6E6E6E6E6E6E6E6E6E6E6E6E6E6E6E6E6E6E6E6E6E6E6E6E6E6E6E6E6E6E6E6E6E6E6E6E6E676E6E676E6E6E6E6E6E676
310
E6E6E6E6E6E6E6E6E6E6E6E6E6E6E6E6E6E6E6E6E6E6E6E6E6E6E6E6E6E676E6E6E6E6E6E676E6E6E6E6E6E6E6E6E67676E6E6E6E6E6E6E6E6E6E6E6E6E6E6E6E6E6E6E6E6E6E6E6E6E6E6E6E6E6E6E6E6E6E6E6E6E6E6E6E6E6E6E6E6E6E6E6E6E6E6E6E6E6E6E6E6E6E6E6E6E6E6E6E6E6E6E6E6E6E6E6E6E6E6E6E6E6E6
310
E6E6E6E6E6E6E6E6E6E6E6E6E6E6E6E6E6E6E6E6E6E6E6E6E6E6E6E6E6E6E6E6E6E6E6E6E6E6E6E6E6E6E6E6E6E6E6E6E6E6E6E6E6E6E6E6E6E6E6E6E6E6E6E6E6E6E6E6E6E6E6E6E6E6E6E6E6E6E6E6E6E6E6E6E6E6E6E6E6E6E6E6E6E6E6E6E6E6E6E6E6E6E6E6E6E6E6E6E6E6E6E6E6E6E6E6E6E676E6E676E6E6E6E6E6
310
E676E6E6E6E6E6E6E6E6E6E6E6E6E6E6E6E6E6E6E6E6E6E6E6E6E6E6E6E6E6E676E6E6E6E6E6E676E6E6E6E6E6E6E6E6767676E6E6E6E6E6E6E6E6E6E6E6E6E6E6E6E6E6E6E6E6E6E6E6E6E6E6E6E6E6E6E6E6E6E6E6E6E6E6E6E6E6E6E6E6E6E6E6E6E6E6E6E6E6E6E6E6E6E6E6E6E6E6E6E6E6E6E6E6E6E6E6E6E6E6E6E6
310
E6E6E6E6E6E6E6E6E6E6E6E6E6E6E6E6E6E6E6E6E6E6E6E6E6E6E6E6E6E6E6E6E6E6E6E6E6E6E6E6E6E6E6E6E6E6E6E6E6E6E6E6E6E6E6E6E6E6E6E6E6E6E6E6E6E6E6E6E6E6E6E6E6E6E6E6E6E6E6E6E6E6E6E6E6E6E6E6E6E6E6E6E6E6E6E6E6E6E6E6E6E6E6E6E6E6E6E6E6E6E6E6E6E6E6E6E6E6E6E67676E676E6E6E6
310
E6E6E676E6E6E6E6E6E6E6E6E6E6E6E6E6E6E6E6E6E6E6E6E6E6E6E6E6E6E6E6E6E676E6E6E6E6E6E676E6E6E6E6E6E6E6E6E67676E6E6E6E6E6E6E6E6E6E6E6E6E6E6E6E6E6E6E6E6E6E6E6E6E6E6E6E6E6E6E6E6E6E6E6E6E6E6E6E6E6E6E6E6E6E6E6E6E6E6E6E6E6E6E6E6E6E6E6E6E6E6E6E6E6E6E6E6E6E6E6E6E6E6
310
E6E6E6E6E6E6E6E6E6E6E6E6E6E6E6E6E6E6E6E6E6E6E6E6E6E6E6E6E6E6E6E6E6E6E6E6E6E6E6E6E6E6E6E6E6E6E6E6E6E6E6E6E6E6E6E6E6E6E6E6E6E6E6E6E6E6E6E6E6E6E6E6E6E6E6E6E6E6E6E6E6E6E6E6E6E6E6E6E6E6E6E6E6E6E6E6E6E6E6E6E6E6E6E6E6E6E6E6E6E6E6E6E6E6E6E6E6E6E6E6E6E676E6E676E6
310
E6E6E6E6E676E6E6E6E6E6E6E6E6E6E6E6E6E6E6E6E6E6E6E6E6E6E6E6E6E6E6E6E6E6E676E6E6E6E6E6E676E6E6E6E6E6E6E6E6E67676E6E6E6E6E6E6E6E6E6E6E6E6E6E6E6E6E6E6E6E6E6E6E6E6E6E6E6E6E6E6E6E6E6E6E6E6E6E6E6E6E6E6E6E6E6E6E6E6E6E6E6E6E6E6E6E6E6E6E6E6E6E6E6E6E6E6E6E6E6E6E6E6
310
E6E6E6E6E6E6E6E6E6E6E6E6E6E6E6E6E6E6E6E6E6E6E6E6E6E6E6E6E6E6E6E6E6E6E6E6E6E6E6E6E6E6E6E6E6E6E6E6E6E6E6E6E6E6E6E6E6E6E6E6E6E6E6E6E6E6E6E6E6E6E6E6E6E6E6E6E6E6E6E6E6E6E6E6E6E6E6E6E6E6E6E6E6E6E6E6E6E6E6E6E6E6E6E6E6E6E6E6E6E6E6E6E6E6E6E6E6E6E6E6E6E6E6E676E6E6
310
76E6E6E6E6E6E676E6E6E6E6E6E6E6E6E6E6E6E6E6E6E6E6E6E6E6E6E6E6E6E6E6E6E6E6E6E676E6E6E6E6E6E676E6E6E6E6E6E6E6E6E67676E6E6E6E6E6E6E6E6E6E6E6E6E6E6E6E6E6E6E6E6E6E6E6E6E6E6E6E6E6E6E6E6E6E6E6E6E6E6E6E6E6E6E6E6E6E6E6E6E6E6E6E6E6E6E6E6E6E6E6E6E6E6E6E6E6E6E6E6E6E6
310
E6E6E6E6E6E6E6E6E6E6E6E6E6E6E6E6E6E6E6E6E6E6E6E6E6E6E6E6E6E6E6E6E6E6E6E6E6E6E6E6E6E6E6E6E6E6E6E6E6E6E6E6E6E6E6E6E6E6E6E6E6E6E6E6E6E6E6E6E6E6E6E6E6E6E6E6E6E6E6E6E6E6E6E6E6E6E6E6E6E6E6E6E6E6E6E6E6E6E6E6E6E6E6E6E6E6E6E6E6E6E6E6E6E6E6E6E6E6E6E6E6E6E6E6E6E676
310
E6E676E6E6E6E6E6E676E6E6E6E6E6E6E6E6E6E6E6E6E6E6E6E6E6E6E6E6E6E6E6E6E6E6E6E6E6E676E6E6E6E6E6E676E6E6E6E6E6E6E6E6E67676E6E6E6E6E6E6E6E6E6E6E6E6E6E6E6E6E6E6E6E6E6E6E6E6E6E6E6E6E6E6E6E6E6E6E6E6E6E6E6E6E6E6E6E6E6E6E6E6E6E6E6E6E6E6E6E6E6E6E6E6E6E6E6E6E6E6E6E6
310
E6E6E6E6E6E6E6E6E6E6E6E6E6E6E6E6E6E6E6E6E6E6E6E6E6E6E6E6E6E6E6E6E6E6E6E6E6E6E6E6E6E6E6E6E6E6E6E6E6E6E6E6E6E6E6E6E6E6E6E6E6E6E6E6E6E6E6E6E6E6E6E6E6E6E6E6E6E6E6E6E6E6E6E6E6E6E6E6E6E6E6E6E6E6E6E6E6E6E6E6E6E6E6E6E6E6E6E6E6E6E6E6E6E6E6E6E6E6E6E6E6E6E6E6E6E6E6
310
E676E6E676E6E6E6E6E6E676E6E6E6E6E6E6E6E6E6E6E6E6E6E6E6E6E6E6E6E6E6E6E6E6E6E6E6E6E6E676E6E6E6E6E6E676E6E6E6E6E6E6E6E6E67676E6E6E6E6E6E6E6E6E6E6E6E6E6E6E6E6E6E6E6E6E6E6E6E6E6E6E6E6E6E6E6E6E6E6E6E6E6E6E6E6E6E6E6E6E6E6E6E6E6E6E6E6E6E6E6E6E6E6E6E6E6E6E6E6E6E6
310
E6E6E6E6E6E6E6E6E6E6E6E6E6E6E6E6E6E6E6E6E6E6E6E6E6E6E6E6E6E6E6E6E6E6E6E6E6E6E6E6E6E6E6E6E6E6E6E6E6E6E6E6E6E6E6E6E6E6E6E6E6E6E6E6E6E6E6E6E6E6E6E6E6E6E6E6E6E6E6E6E6E6E6E6E6E6E6E6E6E6E6E6E6E6E6E6E6E6E6E6E6E6E6E6E6E6E6E6E6E6E6E6E6E6E6E6E6E6E6E6E6E6E6E6E6E6E6
310
E6E6E676E6E676E6E6E6E6E6E676E6E6E6E6E6E6E6E6E6E6E6E6E6E6E6E6E6E6E6E6E6E6E6E6E6E6E6E6E6E676E6E6E6E6E6E676E6E6E6E6E6E6E6E6E67676E6E6E6E6E6E6E6E6E6E6E6E6E6E6E6E6E6E6E6E6E6E6E6E6E6E6E6E6E6E6E6E6E6E6E6E6E6E6E6E6E6E6E6E6E6E6E6E6E6E6E6E6E6E6E6E6E6E6E6E6E6E6E6E6
310
E6E6E6E6E6E6E6E6E6E6E6E6E6E6E6E6E6E6E6E6E6E6E6E6E6E6E6E6E6E6E6E6E6E6E6E6E6E6E6E6E6E6E6E6E6E6E6E6E6E6E6E6E6E6E6E6E6E6E6E6E6E6E6E6E6E6E6E6E6E6E6E6E6E6E6E6E6E6E6E6E6E6E6E6E6E6E6E6E6E6E6E6E6E6E6E6E6E6E6E6E6E6E6E6E6E6E6E6E6E6E6E6E6E6E6E6E6E6E6E6E6E6E6E6E6E6E6
310
E6E6E6E6E676E6E676E6E6E6E6E6E676E6E6E6E6E6E6E6E6E6E6E6E6E6E6E6E6E6E6E6E6E6E6E6E6E6E6E6E6E6E676E6E6E6E6E6E676E6E6E6E6E6E6E6E6E67676E6E6E6E6E6E6E6E6E6E6E6E6E6E6E6E6E6E6E6E6E6E6E6E6E6E6E6E6E6E6E6E6E6E6E6E6E6E6E6E6E6E6E6E6E6E6E6E6E6E6E6E6E6E6E6E6E6E6E6E6E6E6
310
E6E6E6E6E6E6E6E6E6E6E6E6E6E6E6E6E6E6E6E6E6E6E6E6E6E6E6E6E6E6E6E6E6E6E6E6E6E6E6E6E6E6E6E6E6E6E6E6E6E6E6E6E6E6E6E6E6E6E6E6E6E6E6E6E6E6E6E6E6E6E6E6E6E6E6E6E6E6E6E6E6E6E6E6E6E6E6E6E6E6E6E6E6E6E6E6E6E6E6E6E6E6E6E6E6E6E6E6E6E6E6E6E6E6E6E6E6E6E6E6E6E6E6E6E6E6E6
310
E6E6E6E6E6E6E676E6E676E6E6E6E6E6E676E6E6E6E6E6E6E6E6E6E6E6E6E6E6E6E6E6E6E6E6E6E6E6E6E6E6E6E6E6E676E6E6E6E6E6E676E6E6E6E6E6E6E6E6E67676E6E6E6E6E6E6E6E6E6E6E6E6E6E6E6E6E6E6E6E6E6E6E6E6E6E6E6E6E6E6E6E6E6E6E6E6E6E6E6E6E6E6E6E6E6E6E6E6E6E6E6E6E6E6E6E6E6E6E6E6
310
E6E6E6E6E6E6E6E6E6E6E6E6E6E6E6E6E6E6E6E6E6E6E6E6E6E6E6E6E6E6E6E6E6E6E6E6E6E6E6E6E6E6E6E6E6E6E6E6E6E6E6E6E6E6E6E6E6E6E6E6E6E6E6E6E6E6E6E6E6E6E6E6E6E6E6E6E6E6E6E6E6E6E6E6E6E6E6E6E6E6E6E6E6E6E6E6E6E6E6E6E6E6E6E6E6E6E6E6E6E6E6E6E6E6E6E6E6E6E6E6E6E6E6E6E6E6E6
310
E6E6E6E6E6E6E6E6E676E6E676E6E6E6E6E6E676E6E6E6E6E6E6E6E6E6E6E6E6E6E6E6E6E6E6E6E6E6E6E6E6E6E6E6E6E6E676E6E6E6E6E6E676E6E6E6E6E6E6E6E6E67676E6E6E6E6E6E6E6E6E6E6E6E6E6E6E6E6E6E6E6E6E6E6E6E6E6E6E6E6E6E6E6E6E6E6E6E6E6E6E6E6E6E6E6E6E6E6E6E6E6E6E6E6E6E6E6E6E6E6
310
E6E6E6E6E6E6E6E6E6E6E6E6E6E6E6E6E6E6E6E6E6E6E6E6E6E6E6E6E6E6E6E6E6E6E6E6E6E6E6E6E6E6E6E6E6E6E6E6E6E6E6E6E6E6E6E6E6E6E6E6E6E6E6E6E6E6E6E6E6E6E6E6E6E6E6E6E6E6E6E6E6E6E6E6E6E6E6E6E6E6E6E6E6E6E6E6E6E6E6E6E6E6E6E6E6E6E6E6E6E6E6E6E6E6E6E6E6E6E6E6E6E6E6E6E6E6E6
310
E6E6E6E6E6E6E6E6E6E6E676E6E676E6E6E6E6E6E676E6E6E6E6E6E6E6E6E6E6E6E6E6E6E6E6E6E6E6E6E6E6E6E6E6E6E6E6E6E676E6E6E6E6E6E676E6E6E6E6E6E6E6E6E67676E6E6E6E6E6E6E6E6E6E6E6E6E6E6E6E6E6E6E6E6E6E6E6E6E6E6E6E6E6E6E6E6E6E6E6E6E6E6E6E6E6E6E6E6E6E6E6E6E6E6E6E6E6E6E6E6
310
E6E6E6E6E6E6E6E6E6E6E6E6E6E6F5E6E6E6E6E6E6E6E6E6E6E6E6E6E6E6E6E6E6E6E6E6E6E6E6E6E6E6E6E6E6E6E6E6E6E6E6E6E6E6E6E6E6E6E6E6E6E6E6E6E6E6E6E6E6E6E6E6E6E6E6E6E6E6E6E6E6E6E6E6E6E6E6E6E6E6E6E6E6E6E6E6E6E6E6E6E6E6E6E6E6E6E6E6E6E6E6E6E6E6E6E6E6E6E6E6E6E6E6E6E6E6E6
310
E6E6E6E6E6E6E6E6E6E6E6E6E676E6E676E6E6E6E6E6E676E6E6E6E6E6E6E6E6E6E6E6E6E6E6E6E6E6E6E6E6E6E6E6E6E6E6E6E6E6E676E6E6E6E6E6E676E6E6E6E6E6E6E6E6E67676E6E6E6E6E6E6E6E6E6E6E6E6E6E6E6E6E6E6E6E6E6E6E6E6E6E6E6E6E6E6E6E6E6E6E6E6E6E6E6E6E6E6E6E6E6E6E6E6E6E6E6E6E6E6
310
E6E6E6E6E6E6E6E6E6E6E6E6E6E6F5C3C3F5E6E6E6E6E6E6E6E6E6E6E6E6E6E6E6E6E6E6E6E6E6E6E6E6E6E6E6E6E6E6E6E6E6E6E6E6E6E6E6E6E6E6E6E6E6E6E6E6E6E6E6E6E6E6E6E6E6E6E6E6E6E6E6E6E6E6E6E6E6E6E6E6E6E6E6E6E6E6E6E6E6E6E6E6E6E6E6E6E6E6E6E6E6E6E6E6E6E6E6E6E6E6E6E6E6E6E6E6E6
310
E6E6E6E6E6E6E6E6E6E6E6E6E6E6E676E6E676E6E6E6E6E6E676E6E6E6E6E6E6E6E6E6E6E6E6E6E6E6E6E6E6E6E6E6E6E6E6E6E6E6E6E6E676E6E6E6E6E6E676E6E6E6E6E6E6E6E6E67676E6E6E6E6E6E6E6E6E6E6E6E6E6E6E6E6E6E6E6E6E6E6E6E6E6E6E6E6E6E6E6E6E6E6E6E6E6E6E6E6E6E6E6E6E6E6E6E6E6E6E6E6
310
E6E6E6E6E6E6E6E6E6E6E6E6E6F5F5F5F5F5F5F5E6E6E6E6E6E6E6E6E6E6E6E6E6E6E6E6E6E6E6E6E6E6E6E6E6E6E6E6E6E6E6E6E6E6E6E6E6E6E6E6E6E6E6E6E6E6E6E6E6E6E6E6E6E6E6E6E6E6E6E6E6E6E6E6E6E6E6E6E6E6E6E6E6E6E6E6E6E6E6E6E6E6E6E6E6E6E6E6E6E6E6E6E6E6E6E6E6E6E6E6E6E6E6E6E6E6E6
310
E6E6E6E6E6E6E6E6E6E6E6E6E6E6E6E6E676E6E676E6E6E6E6E6E676E6E6E6E6E6E6E6E6E6E6E6E6E6E6E6E6E6E6E6E6E6E6E6E6E6E6E6E6E6E676E6E6E6E6E6E676E6E6E6E6E6E6E6E6E67676E6E6E6E6E6E6E6E6E6E6E6E6E6E6E6E6E6E6E6E6E6E6E6E6E6E6E6E6E6E6E6E6E6E6E6E6E6E6E6E6E6E6E6E6E6E6E6E6E6E6
310
E6E6E6E6E6E6E6E6E6E6E6E6E6E6E6E6E6E6E6E6F5E6E6E6E6E6E6E6E6E6E6E6E6E6E6E6E6E6E6E6E6E6E6E6E6E6E6E6E6E6E6E6E6E6E6E6E6E6E6E6E6E6E6E6E6E6E6E6E6E6E6E6E6E6E6E6E6E6E6E6E6E6E6E6E6E6E6E6E6E6E6E6E6E6E6E6E6E6E6E6E6E6E6E6E6E6E6E6E6E6E6E6E6E6E6E6E6E6E6E6E6E6E6E6E6E6E6
310
E6E6E6E6E6E6E6E6E6E6E6E6E6E6E6E6E6E6E676E6E676E6E6E6E6E6E676E6E6E6E6E6E6E6E6E6E6E6E6E6E6E6E6E6E6E6E6E6E6E6E6E6E6E6E6E6E676E6E6E6E6E6E676E6E6E6E6E6E6E6E6E67676E6E6E6E6E6E6E6E6E6E6E6E6E6E6E6E6E6E6E6E6E6E6E6E6E6E6E6E6E6E6E6E6F5F5F5F5F5F5F5F5F5F5F5F5F5F5F5F5
310
F5F5F5F5F5F5F5F5F5F5F5F5F5F5F5F5F5F5F5F5F5F5BEF5F5F5F5F5F5F5F5F5F5F5F5F5F5F5F5F5F5F5F5F5F5F5F5F5F5F5F5F5F5F5F5F5F5F5F5F5F5E6E6E6E6E6E6E6E6E6E6E6E6E6E6E6E6F5F5DCDC2828282828282828E6E6E6E6E6E6E6E6E6C3C3C3F5F5F5E6E6E6E6E6E6E6E6E6E6E6E6E6E6E6E6E6E6E6E6E6E6E6
310
E6E6E6E6E6E6E6E6E6E6E6E6E6E6E6E6E6E6E6E6E676E6E676E6E6E6E6E6E676E6E6E6E6E6E6E6E6E6E6E6E6E6E6E6E6E6E6E6E6E6E6E6E6E6E6E6E6E6E676E6E6E6E6E6E676E6E6E6E6E6E6E6E6E67676E6E6E6E6E6E6E6E6E6E6E6E6E6E6E6E6E6E6E6E6E6E6E6E6E6E6E6E6E6E6E6E6F5F5F5F5F5F5F5F5F5F5F5F5F5F5
310
F5F5F5F5F5F5F5F5F5F5F5F5F5F5F5F5F5F5F5F5F5F5F5F5BEF5F5F5F5F5F5F5F5F5F5F5F5F5F5F5F5F5F5F5F5F5F5F5F5F5F5F5F5F5F5F5F5F5F5F5F5F5F5E6E6E6E6E6E6E6E6E6E6E6E6F5F5F5F5F5E6DCE6F5E6E6E6E6E62828E6E6E6E6E6E6C3C3C3F5C3C3C3E6E6E6E6E6E6E6E6E6E6E6E6E6E6E6E6E6E6E6E6E6E6E6
310
E6E6E6E6E6E6E6E6E6E6E6E6E6E6E6E6E6E6E6E6E6E6E676E6E676E6E6E6E6E6E676E6E6E6E6E6E6E6E6E6E6E6E6E6E6E6E6E6E6E6E6E6E6E6E6E6E6E6E6E6E676E6E6E6E6E6E676E6E6E6E6E6E6E6E6E67676E6E6E6E6E6E6E6E6E6E6E6E6E6E6E6E6E6E6E6E6E6E6E6E6E6E6E6E6E6E6E6E6F5E6F52D2D2D2D2D2D2D2D2D
310
2D2D2D2D2D2D2D2D2D2D2D2D2D2D2D2D2D2D2D2D2D2D2D2D2DF5BEF52D2D2D2D2D2D2D2D2D2D2D2D2D2D2D2D2D2D2D2D2D2D2D2D2D2D2D2D2D2D2D2D2D2DF5F5F5E6E6E6E6E6E6E6E6E6E6E6E6F5E6DCF5F5DCDCE6F5E6E6E6E6E628E6E6E6E6E6E6E6C3C3C3C3C3C3F5E6E6E6E6E6E6E6E6E6E6E6E6E6E6E6E6E6E6E6E6E6
310
E6E6E6E6E6E6E6E6E6E6E6E6E6E6E6E6E6E6E6E6E6E6E6E6E676E6E676E6E6E6E6E6E676E6E6E6E6E6E6E6E6E6E6E6E6E6E6E6E6E6E6E6E6E6E6E6E6E6E6E6E6E6E676E6E6E6E6E6E676E6E6E6E6E6E6E6E6E67676E6E6E6E6E6E6E6E6E6E6E6E6E6E6E6E6E6E6E6E6E6E6E6E6E6E6E6E6E6E6E6E6F5E6F5E6E6E6E6E6E6E6
310
E6E6E6E6E6E6E6E6E6E6E6E6E6E6E6E6E6E6E6E6E6E6E6E6E6E6E62DF52DE6E6E6E6E6E6E6E6E6E6E6E6E6E6E6E6E6E6E6E6E6E6E6E6E6E6E6E6E6E6E6E6E6E6F5F5F5E6E6E6E6E6E6E6E6E6E6E6E6F5E6DCF5F5E6DCE6F5E6E6E6E6E628E6E6E6E6E6E6E6C3C3E6E6E6E6F5E6E6E6E6E6E6E6E6E6E6E6E6E6E6E6E6E6E6E6
310
E6E6E6E6E6E6E6E6E6E6E6E6E6E6E6E6E6E6E6E6E6E6E6E6E6E6E676E6E676E6E6E6E6E6E676E6E6E6E6E6E6E6E6E6E6E6E6E6E6E6E6E6E6E6E6E6E6E6E6E6E6E6E6E6E676E6E6E6E6E6E676E6E6E6E6E6E6E6E6767676E6E6E6E6E6E6E6E6E6E6E6E6E6E6E6E6E6E6E6E6E6E6E6E6E6E6E6E6E6E6E6E6F5E62DE6E6E6E6E6
310
E6E6E6E6E6E6E6E6E6E6E6E6E6E6E6E6E6E6E6E6E6E6E6E6E6E6E6E6E6F5F52DE6E6E6E6E6E6E6E6E6E6E6E6E6E6E6E6E6E6E6E6E6E6E6E6E6E6E6E6E6E6E6E6E6E62DF5F5E6E6E6E6E6E6E6E6E6E6E6E6F5E6DCF5F5E6DCE6F5E6E6E6E6E628E6E6E6E6E6E6E6C3C3E6E6E6E6F5E6E6E6E6E6E6E6E6E6E6E6E6E6E6E6E6E6
310
E6E6E6E6E6E6E6E6E6E6E6E6E6E6E6E6E6E6E6E6E6E6E6E6E6E6E6E6E676767676E6E6E6E6E6E676E6E6E6E6E6E6E6E6E6E6E6E6E6E6E6E6E6E6E6E6E6E6E6E6E6E6E6E6E6E676E6E6E6E6E6E676E6E6E6E6E6E6E6E6767676E6E6E6E6E6E6E6E6E6E6E6E6E6E6E6E6E6E6E6E6E6E6E6E6E6E6E6E6E6E6E6E6F5E62DE6E6E6
310
E6E6E6E6E6E6E6E6E6E6E6E6E6E6E6E6E6E6E6E6E6E6E6E6E6E6E6E6E6E6E6F5F52DE6E6E6E6E6E6E6E6E6E6E6E6E6E6E6E6E6E6E6E6E6E6E6E6E6E6E6E6E6E6E6E6E6E62DF5F5E6E6E6E6E6E6E6E6E6E6E6E6F5E6DCF5F5E6DCE6F5E6E6E6E6E628E6E6E6E6E6E6E6C3C3E6E6E6E6F5E6E6E6E6E6E6E6E6E6E6E6E6E6E6E6
310
E6E6E6E6E6E6E6E6E6E6E6E6E6E6E6E6E6E6E6E6E6E6E6E6E6E6E6E6E6E6E676767676E6E6E6E6E6E676E6E6E6E6E6E6E6E6E6E6E6E6E6E6E6E6E6E6E6E6E6E6E6E6E6E6E6E6E6E676E6E6E6E6E6E676E6E6E6E6E6E6E6E6E67676E6E6E6E6E6E6E6E6E6E6E6E6E6E6E6E6E6E6E6E6E6E6E6E6E6E6E6E6E6E6E6E6F5E62DE6
310
E6E6E6E6E6E6E6E6E6E6E6E6E6E6E6E6E6E6E6E6E6E6E6E6E6E6E6E6E6E6E6E6E6F5F52DE6E6E6E6E6E6E6E6E6E6E6E6E6E6E6E6E6E6E6E6E6E6E6E6E6E6E6E6E6E6E6E6E6E62DF5F5E6E6E6E6E6E6E6E6E6E6E6E6F5E6DCF5F5E6DCE6F5E6E6E6E6E628E6E6E6E6E6E6E6C3C3E6E6E6E6F5E6E6E6E6E6E6E6E6E6E6E6E6E6
310
E6E6E6E6E6E6E6E6E6E6E6E6E6E6E6E6E6E6E6E6E6E6E6E6E6E6E6E6E6E6E6E6E676E6E676E6E6E6E6E6E676E6E6E6E6E6E6E6E6E6E6E6E6E6E6E6E6E6E6E6E6E6E6E6E6E6E6E6E6E6E676E6E6E6E6E6E676E6E6E6E6E6E6E6E6E67676E6E6E6E6E6E6E6E6E6E6E6E6E6E6E6E6E6E6E6E6E6E6E6E6E6E6E6E6E6E6E6E6F5E6
310
2DE6E6E6E6E6E6E6E6E6E6E6E6E6E6E6E6E6E6E6E6E6E6E6E6E6E6E6E6E6E6E6E6E6E6F5F52DE6E6E6E6E6E6E6E6E6E6E6E6E6E6E6E6E6E6E6E6E6E6E6E6E6E6E6E6E6E6E6E6E6E62DF5F5E6E6E6E6E6E6E6E6E6E6E6E6F5E6DCF5F5E6DCE6F5E6E6E6E6E628E6E6E6E6E6E6E6C3C3E6E6E6E6F5E6E6E6E6E6E6E6E6E6E6E6
310
E6E6E6E6E6E6E6E6E6E6E6E6E6E6E6E6E6E6E6E6E6E6E6E6E6E6E6E6E6E6E6E6E6E6E676E6E676E6E6E6E6E6E676E6E6E6E6E6E6E6E6E6E6E6E6E6E6E6E6E6E6E6E6E6E6E6E6E6E6E6E6E6E676E6E6E6E6E6E676E6E6E6E6E6E6E6E6E67676E6E6E6E6E6E6E6E6E6E6E6E6E6E6E6E6E6E6E6E6E6E6E6E6E6E6E6E6E6E6E6E6
310
F5E62DE6E6E6E6E6E6E6E6E6E6E6E6E6E6E6E6E6E6E6E6E6E6E6E6E6E6E6E6E6E6E6E6E6E6F5F52DE6E6E6E6E6E6E6E6E6E6E6E6E6E6E6E6E6E6E6E6E6E6E6E6E6E6E6E6E6E6E6E6E6E62DF5F5E6E6E6E6E6E6E6E6E6E6E6E6F5E6DCF5F5E6DCE6F5E6E6E6E6E628E6E6E6E6E6E6E6C3C3E6E6E6E6F5E6E6E6E6E6E6E6E6E6
310
E6E6E6E6E6E6E6E6E6E6E6E6E6E6E6E6E6E6E6E6E6E6E6E6E6E6E6E6E6E6E6E6E6E6E6E6E676E6E676E6E6E6E6E6E676E6E6E6E6E6E6E6E6E6E6E6E6E6E6E6E6E6E6E6E6E6E6E6E6E6E6E6E6E6E676E6E6E6E6E6E676E6E6E6E6E6E6E6E6E67676E6E6E6E6E6E6E6E6E6E6E6E6E6E6E6E6E6E6E6E6E6E6E6E6E6E6E6E6E6E6
310
E6E6F5E62DE6E6E6E6E6E6E6E6E6E6E6E6E6E6E6E6E6E6E6E6E6E6E6E6E6E6E6E6E6E6E6E6E6E6F5F52DE6E6E6E6E6E6E6E6E6E6E6E6E6E6E6E6E6E6E6E6E6E6E6E6E6E6E6E6E6E6E6E6E6E62DF5F5E6E6E6E6E6E6E6E6E6E6E6E6F5E6DCF5F5E6DCE6F5E6E6E6E6E628E6E6E6E6E6E6E6C3C3E6E6E6E6F5E6E6E6E6E6E6E6
310
E6E6E6E6E6E6E6E6E6E6E6E6E6E6E6E6E6E6E6E6E6E6E6E6E6E6E6E6E6E6E6E6E6E6E6E6E6E6E676E6E676E6E6E6E6E6E676E6E6E6E6E6E6E6E6E6E6E6E6E6E6E6E6E6E6E6E6E6E6E6E6E6E6E6E6E6E676E6E6E6E6E6E676E6E6E6E6E6E6E6E6E67676E6E6E6E6E6E6E6E6E6E6E6E6E6E6E6E6E6E6E6E6E6E6E6E6E6E6E6E6
310
E6E6E6E6F5E62DE6E6E6E6E6E6E6E6E6E6E6E6E6E6E6E6E6E6E6E6E6E6E6E6E6E6E6E6E6E6E6E6E6E6F5F52DE6E6E6E6E6E6E6E6E6E6E6E6E6E6E6E6E6E6E6E6E6E6E6E6E6E6E6E6E6E6E6E6E6E62DF5F5E6E6E6E6E6E6E6E6E6E6E6E6F5E6DCF5F5E6DCE6F5E6E6E6E6E628E6E6E6E6E6E6E6C3C3E6E6E6E6F5E6E6E6E6E6
310
E6E6E6E6E6E6E6E6E6E6E6E6E6E6E6E6E6E6E6E6E6E6E6E6E6E6E6E6E6E6E6E6E6E6E6E6E6E6E6E6E676E6E676E6E6E6E6E6E676E6E6E6E6E6E6E6E6E6E6E6E6E6E6E6E6E6E6E6E6E6E6E6E6E6E6E6E6E6E676E6E6E6E6E6E676E6E6E6E6E6E6E6E6E67676E6E6E6E6E6E6E6E6E6E6E6E6E6E6E6E6E6E6E6E6E6E6E6E6E6E6
310
E6E6E6E6E6E6F5E62DE6E6E6E6E6E6E6E6E6E6E6E6E6E6E6E6E6E6E6E6E6E6E6E6E6E6E6E6E6E6E6E6E6E6F5F52DE6E6E6E6E6E6E6E6E6E6E6E6E6E6E6E6E6E6E6E6E6E6E6E6E6E6E6E6E6E6E6E6E6E62DF5F5E6E6E6E6E6E6E6E6E6E6E6E6F5E6DCF5F5E6DCE6F5E6E6E6E6E628E6E6E6E6E6E6E6C3C3E6E6E6E6F5E6E6E6
310
E6E6E6E6E6E6E6E6E6E6E6E6E6E6E6E6E6E6E6E6E6E6E6E6E6E6E6E6E6E6E6E6E6E6E6E6E6E6E6E6E6E6E676E6E676E6E6E6E6E6E676E6E6E6E6E6E6E6E6E6E6E6E6E6E6E6E6E6E6E6E6E6E6E6E6E6E6E6E6E6E676E6E6E6E6E6E676E6E6E6E6E6E6E6E6E67676E6E6E6E6E6E6E6E6E6E6E6E6E6E6E6E6E6E6E6E6E6E6E6E6
310
E6E6E6E6E6E6E6E6F5E62DE6E6E6E6E6E6E6E6E6E6E6E6E6E6E6E6E6E6E6E6E6E6E6E6E6E6E6E6E6E6E6E6E6E6F5F52DE6E6E6E6E6E6E6E6E6E6E6E6E6E6E6E6E6E6E6E6E6E6E6E6E6E6E6E6E6E6E6E6E6E62DF5F5E6E6E6E6E6E6E6E6E6E6E6E6F5E6DCF5F5E6DCE6F5E6E6E6E6E628E6E6E6E6E6E6E6C3C3E6E6E6E6F5E6
310
E6E6E6E6E6E6E6E6E6E6E6E6E6E6E6E6E6E6E6E6E6E6E6E6E6E6E6E6E6E6E6E6E6E6E6E6E6E6E6E6E6E6E6E6E676E6E676E6E6E6E6E6E676E6E6E6E6E6E6E6E6E6E6E6E6E6E6E6E6E6E6E6E6E6E6E6E6E6E6E6E6E6E676E6E6E6E6E6E676E6E6E6E6E6E6E6E6E67676E6E6E6E6E6E6E6E6E6E6E6E6E6E6E6E6E6E6E6E6E6E6
310
E6E6E6E6E6E6E6E6E6E6F5E62DE6E6E6E6E6E6E6E6E6E6E6E6E6E6E6E6E6E6E6E6E6E6E6E6E6E6E6E6E6E6E6E6E6E6F5F52DE6E6E6E6E6E6E6E6E6E6E6E6E6E6E6E6E6E6E6E6E6E6E6E6E6E6E6E6E6E6E6E6E6E62DF5F5E6E6E6E6E6E6E6E6E6E6E6E6F5E6DCF5F5E6DCE6F5E6E6E6E6E628E6E6E6E6E6E6E6C3C3E6E6E6E6
310
F5E6E6E6E6E6E6E6E6E6E6E6E6E6E6E6E6E6E6E6E6E6E6E6E6E6E6E6E6E6E6E6E6E6E6E6E6E6E6E6E6E6E6E6E6E6E676E6E676E6E6E6E6E6E676E6E6E6E6E6E6E6E6E6E6E6E6E6E6E6E6E6E6E6E6E6E6E6E6E6E6E6E6E6E676E6E6E6E6E6E676E6E6E6E6E6E6E6E6E67676E6E6E6E6E6E6E6E6E6E6E6E6E6E6E6E6E6E6E6E6
310
E6E6E6E6E6E6E6E6E6E6E6E6F5E62DE6E6E6E6E6E6E6E6E6E6E6E6E6E6E6E6E6E6E6E6E6E6E6E6E6E6E6E6E6E6E6E6E6E6F5F52DE6E6E6E6E6E6E6E6E6E6E6E6E6E6E6E6E6E6E6E6E6E6E6E6E6E6E6E6E6E6E6E6E6E62DF5F5E6E6E6E6E6E6E6E6E6E6E6E6F5E6DCF5F5E6DCE6F5E6E6E6E6E628E6E6E6E6E6E6E6C3C3E6E6
310
E6E6F5E6E6E6E6E6E6E6E6E6E6E6E6E6E6E6E6E6E6E6E6E6E6E6E6E6E6E6E6E6E6E6E6E6E6E6E6E6E6E6E6E6E6E6E6E6E676E6E676E6E6E6E6E6E676E6E6E6E6E6E6E6E6E6E6E6E6E6E6E6E6E6E6E6E6E6E6E6E6E6E6E6E6E6E676E6E6E6E6E6E676E6E6E6E6E6E6E6E6E67676E6E6E6E6E6E6E6E6E6E6E6E6E6E6E6E6E6E6
310
E6E6E6E6E6E6E6E6E6E6E6E6E6E6F5E62DE6E6E6E6E6E6E6E6E6E6E6E6E6E6E6E6E6E6E6E6E6E6E6E6E6E6E6E6E6E6E6E6E6E6F5F52DE6E6E6E6E6E6E6E6E6E6E6E6E6E6E6E6E6E6E6E6E6E6E6E6E6E6E6E6E6E6E6E6E6E62DF5F5E6E6E6E6E6E6E6E6E6E6E6E6F5E6DCF5F5E6DCE6F5E6E6E6E6E628E6E6E6E6E6E6E6C3C3
310
E6E6E6E6F5E6E6E6E6E6E6E6E6E6E6E6E6E6E6E6E6E6E6E6E6E6E6E6E6E6E6E6E6E6E6E6E6E6E6E6E6E6E6E6E6E6E6E6E6E6E676E6E676E6E6E6E6E6E676E6E6E6E6E6E6E6E6E6E6E6E6E6E6E6E6E6E6E6E6E6E6E6E6E6E6E6E6E6E676E6E6E6E6E6E676E6E6E6E6E6E6E6E6E67676E6E6E6E6E6E6E6E6E6E6E6E6E6E6E6E6
310
E6E6E6E6E6E6E6E6E6E6E6E6E6E6E6E6F5E62DE6E6E6E6E6E6E6E6E6E6E6E6E6E6E6E6E6E6E6E6E6E6E6E6E6E6E6E6E6E6E6E6E6E6F5F52DE6E6E6E6E6E6E6E6E6E6E6E6E6E6E6E6E6E6E6E6E6E6E6E6E6E6E6E6E6E6E6E6E6E62DF5F5E6E6E6E6E6E6E6E6E6E6E6E6F5E6DCF5F5E6DCE6F5E6E6E6E6E628E6E6E6E6E6E6E6
310
C3C3E6E6E6E6F5E6E6E6E6E6E6E6E6E6E6E6E6E6E6E6E6E6E6E6E6E6E6E6E6E6E6E6E6E6E6E6E6E6E6E6E6E6E6E6E6E6E6E6E6E6E676E6E676E6E6E6E6E6E676E6E6E6E6E6E6E6E6E6E6E6E6E6E6E6E6E6E6E6E6E6E6E6E6E6E6E6E6E6E676E6E6E6E6E6E676E6E6E6E6E6E6E6E6E67676E6E6E6E6E6E6E6E6E6E6E6E6E6E6
310
E6E6E6E6E6E6E6E6E6E6E6E6E6E6E6E6E6E6F5E62DE6E6E6E6E6E6E6E6E6E6E6E6E6E6E6E6E6E6E6E6E6E6E6E6E6E6E6E6E6E6E6E6E6E6F5F52DE6E6E6E6E6E6E6E6E6E6E6E6E6E6E6E6E6E6E6E6E6E6E6E6E6E6E6E6E6E6E6E6E6E62DF5F5E6E6E6E6E6E6E6E6E6E6E6E6F5E6DCF5F5E6DCE6F5E6E6E6E6E628E6E6E6E6E6
310
E6E6C3C3E6E6E6E6F5E6E6E6E6E6E6E6E6E6E6E6E6E6E6E6E6E6E6E6E6E6E6E6E6E6E6E6E6E6E6E6E6E6E6E6E6E6E6E6E6E6E6E6E6E6E676E6E676E6E6E6E6E6E676E6E6E6E6E6E6E6E6E6E6E6E6E6E6E6E6E6E6E6E6E6E6E6E6E6E6E6E6E6E676E6E6E6E6E6E676E6E6E6E6E6E6E6E6E67676E6E6E6E6E6E6E6E6E6E6E6E6
310
E6E6E6E6E6E6E6E6E6E6E6E6E6E6E6E6E6E6E6E6F5E62DE6E6E6E6E6E6E6E6E6E6E6E6E6E6E6E6E6E6E6E6E6E6E6E6E6E6E6E6E6E6E6E6E6E6F5F52DE6E6E6E6E6E6E6E6E6E6E6E6E6E6E6E6E6E6E6E6E6E6E6E6E6E6E6E6E6E6E6E6E6E62DF5F5E6E6E6E6E6E6E6E6E6E6E6E6F5DCE6F5F5E6DCE6F5E6E6E6E6E628E6E6E6
310
E6E6E6E6C3C3E6E6E6E6F5E6E6E6E6E6E6E6E6E6E6E6E6E6E6E6E6E6E6E6E6E6E6E6E6E6E6E6E6E6E6E6E6E6E6E6E6E6E6E6E6E6E6E6E6E6E676E6E676E6E6E6E6E6E676E6E6E6E6E6E6E6E6E6E6E6E6E6E6E6E6E6E6E6E6E6E6E6E6E6E6E6E6E6E676E6E6E6E6E6E676E6E6E6E6E6E6E6E6E67676E6E6E6E6E6E6E6E6E6E6
310
E6E6E6E6E6E6E6E6E6E6E6E6E6E6E6E6E6E6E6E6E6E6F5E62DE6E6E6E6E6E6E6E6E6E6E6E6E6E6E6E6E6E6E6E6E6E6E6E6E6E6E6E6E6E6E6E6E6E6DCF5DCE6E6E6E6E6E6E6E6E6E6E6E6E6E6E6E6E6E6E6E6E6E6E6E6E6E6E6E6E6E6E6E6E6E62DF5F5E6E6E6E6E6E6E6E6E6E6E6E6DCDCE6F5F5E6DCE6F5E6E6E6E6E628E6
310
E6E6E6E6E6E6C3C3E6E6E6E6F5E6E6E6E6E6E6E6E6E6E6E6E6E6E6E6E6E6E6E6E6E6E6E6E6E6E6E6E6E6E6E6E6E6E6E6E6E6E6E6E6E6E6E6E6E6E676E6E676E6E6E6E6E6E676E6E6E6E6E6E6E6E6E6E6E6E6E6E6E6E6E6E6E6E6E6E6E6E6E6E6E6E6E6E676E6E6E6E6E6E676E6E6E6E6E6E6E6E6E67676E6E6E6E6E6E6E6E6
310
E6E6E6E6E6E6E6E6E6E6E6E6E6E6E6E6E6E6E6E6E6E6E6E6F5E62DE6E6E6E6E6E6E6E6E6E6E6E6E6E6E6E6E6E6E6E6E6E6E6E6E6E6E6E6E6E6E6E6DCF5F5F5F5F5DCE6E6E6E6E6E6E6E6E6E6E6E6E6E6E6E6E6E6E6E6E6E6E6E6E6E6E6E6E6E6E6E62DF5F5E6E6E6E6E6E6E6E6E6E6E6E6F5DCE6F5F5E6DCE6F5E6E6E6E6E6
310
28E6E6E6E6E6E6E6F5C3E6E6E6E6F5E6E6E6E6E6E6E6E6E6E6E6E6E6E6E6E6E6E6E6E6E6E6E6E6E6E6E6E6E6E6E6E6E6E6E6E6E6E6E6E6E6E6E6E6E6E676E6E676E6E6E6E6E6E676E6E6E6E6E6E6E6E6E6E6E6E6E6E6E6E6E6E6E6E6E6E6E6E6E6E6E6E6E6E676E6E6E6E6E6E676E6E6E6E6E6E6E6E6E67676E6E6E6E6E6E6
310
E6E6E6E6E6E6E6E6E6E6E6E6E6E6E6E6E6E6E6E6E6E6E6E6E6E6F5E62DE6E6E6E6E6E6E6E6E6E6E6E6E6E6E6E6E6E6E6E6E6E6E6E6E6E6E6E6E6E6E6F5F5E6F5F52DF5F5DCE6E6E6E6E6E6E6E6E6E6E6E6E6E6E6E6E6E6E6E6E6E6E6E6E6E6E6E6E6E6E6F5F5F5E6E6E6E6E6E6E6E6E6E6E6E6F5DCE6F5F5E6DCE6F5E6E6E6
310
E6E628E6E6E6E6E6E6E6F5F5E6E6E6E6F5E6E6E6E6E6E6E6E6E6E6E6E6E6E6E6E6E6E6E6E6E6E6E6E6E6E6E6E6E6E6E6E6E6E6E6E6E6E6E6E6E6E6E6E6E6E676E6E676E6E6E6E6E6E676E6E6E6E6E6E6E6E6E6E6E6E6E6E6E6E6E6E6E6E6E6E6E6E6E6E6E6E6E6E676E6E6E6E6E6E6767676767676E6E6E6767676E6E6E6E6
310
E6E6E6E6E6E6E6E6E6E6E6E6E6E6E6E6E6E6E6E6E6E6E6E6E6E6E6E6F5E62DE6E6E6E6E6E6E6E6E6E6E6E6E6E6E6E6E6E6E6E6E6E6E6E6E6E6E6E6E6E6DCF5E6E6F5F52DE6E6F5DCE6E6E6E6E6E6E6E6E6E6E6E6E6E6E6E6E6E6E6E6E6E6E6E6E6E6E6E6E6E6F5F5F5E6E6E6E6E6E6E6E6E6E6E6E6F5DCE6F5F5E6DCE6F5E6
310
E6E6E6E628E6E6E6E6E6E6E6F5F5E6E6E6E6F5E6E6E6E6E6E6E6E6E6E6E6E6E6E6E6E6E6E6E6E6E6E6E6E6E6E6E6E6E6E6E6E6E6E6E6E6E6E6E6E6E6E6E6E6E6E67676E676E6E6E6E6E6E676E6E6E6E6E6E6E6E6E6E6E6E6E6E6E6E6E6E6E6E6E6E6E6E6E6E6E6E6E6E676E6E6E6E6E6E676E6E6E6E6E6E6E6E6E67676E6E6
310
E6E6E6E6E6E6E6E6E6E6E6E6E6E6E6E6E6E6E6E6E6E6E6E6E6E6E6E6E6E6F5E6F52D2DE6E6E6E6E6E6E6E6E6E6E6E6E6E6E6E6E6E6E6E6E6E6E6E6E6E6E6E6F5E6E6E6F5F52DE6E6E6F5E6E6E6E6E6E6E6E6E6E6E6E6E6E6E6E6E6E6E6E6E6E6E6E6E6E6E6E62D2DF5F5F5E6E6E6E6E6E6E6E6E6E6E6E6F5DCDCF52DF5F5E6
310
F5E6E6E6E6E628E6E6E6E6E6E6E6F5F5E6E6E6E6F5E6E6E6E6E6E6E6E6E6E6E6E6E6E6E6E6E6E6E6E6E6E6E6E6E6E6E6E6E6E6E6E6E6E6E6E6E6E6E6E6E6E6E6E6E6E676E6E676E6E6E6E6E6E676E6E6E6E6E6E6E6E6E6E6E6E6E6E6E6E6E6E6E6E6E6E6E6E6E6E6E6E6E6E676E6E6E6E6E6E676E6E6E6E6E6E6E6E6E67676
310
E6E6E6E6E6E6E6E6E6E6E6E6E6E6E6E6E6E6E6E6E6E6E6E6E6E6E6E6E6E6E6E6F5E6F5F52DF52D2D2D2D2D2D2D2D2D2D2D2D2D2D2D2D2D2D2D2D2D2D2D2D2D2DDCF52D2D2DF52DF52D2D2DF52D2D2D2D2D2D2D2D2D2D2D2D2D2D2D2D2D2D2D2D2D2D2D2D2D2D2DF5F5F5F5F5F5E6E6E6E6E6E6E6E6E6E6E6E6F5DCDCDC2DF5
310
F5E6F5E6E6E6E62828E6E6E6E6E6E6E6F5F5F5F5F5F5F5E6E6E6E6E6E6E6E6E6E6E6E6E6E6E6E6E6E6E6E6E6E6E6E6E6E6E6E6E6E6E6E6E6E6E6E6E6E6E6E6E6E6E6E6E6E676E6E676E6E6E6E6E6E676E6E6E6E6E6E6E6E6E6E6E6E6E6E6E6E6E6E6E6E6E6E6E6E6E6E6E6E6E6E676E6E6E6E6E6E676E6E6E6E6E6E6E6E6E6
310
7676E6E6E6E6E6E6E6E6E6E6E6E6E6E6E6E6E6E6E6E6E6E6E6E6E6E6E6E6E6E6E6E6BEBEF5BEBEF5BEBEBEBEBEBEBEBEBEBEBEBEBEBEBEBEBEBEBEBEBEBEBEBEBEBEBEBEBEBEBE2D2DF5F5F5F5F5F5F5F5F5F5F5F5F5F5F5F5F5F5F5F5F5F5F5F5F5F5F5F5F5F5F5F5F5BEBEF5BEBEBEE6E6E6E6E6E6E6E6E6E6E6BEBEBEBE
310
BEBEDCBEF5E6E6E6E62828E6E6E6E6E6E6E6BEBEBEBEBEF5BEE6E6E6E6E6E6E6E6E6E6E6E6E6E6E6E6E6E6E6E6E6E6E6E6E6E6E6E6E6E6E6E6E6E6E6E6E6E6E6E6E6E6E6E6E6E676E6E676E6E6E6E6E6E676E6E6E6E6E6E6E6E6E6E6E6E6E6E6E6E6E6E6E6E6E6E6E6E6E6E6E6E6E6E676E6E6E6E6E6E676E6E6E6E6E6E6E6
310
E6E67676E6E6E6E6E6E6E6E6E6E6E6E6E6E6E6E6E6E6E6E6E6E6E6E6E6E6E6E6E6E6E6E6F5E6F5F52D2D2D2D2D2D2D2D2D2D2D2D2D2D2D2D2D2D2D2D2D2D2D2D2D2D2D2DDCF52D2D2D2DBE2D2D2D2D2D2D2D2D2D2D2D2D2D2D2D2D2D2D2D2D2D2D2D2D2D2D2D2D2D2D2D2D2DF5F5F5F5F5E6E6E6E6E6E6E6E6E6E6E6E6F5DC
310
DCDC2DF5F5E6F5E6E6E6E62828E6E6E6E6E6E6E6F5F5F5F5F5F5F5E6E6E6E6E6E6E6E6E6E6E6E6E6E6E6E6E6E6E6E6E6E6E6E6E6E6E6E6E6E6E6E6E6E6E6E6E6E6E6E6E6E6E6E6E6E676E6E676E6E6E6E6E6E676E6E6E6E6E6E6E6E6E6E6E6E6E6E6E6E6E6E6E6E6E6E6E6E6E6E6E6E6E6E676E6E6E6E6E6E676E6E6E6E6E6
310
E6E6E6E67676E6E6E6E6E6E6E6E6E6E6E6E6E6E6E6E6E6E6E6E6E6E6E6E6E6E6E6E6E6E6E6E6F5E6F52DE6E6E6E6E6E6E6E6E6E6E6E6E6E6E6E6E6E6E6E6E6E6E6E6E6E6E6E6E6F5F5E6E6F5BE2DE6E6F5DCE6E6E6E6E6E6E6E6E6E6E6E6E6E6E6E6E6E6E6E6E6E6E6E6E6E6E6E6E62DF5F5F5E6E6E6E6E6E6E6E6E6E6E6E6
310
F5DCF5F52DF5F5E6F5E6E6E6E6E628E6E6E6E6E6E6E6F5F5E6E6E6E6F5E6E6E6E6E6E6E6E6E6E6E6E6E6E6E6E6E6E6E6E6E6E6E6E6E6E6E6E6E6E6E6E6E6E6E6E6E6E6E6E6E6E6E6E6E6E676E6E676E6E6E6E6E6E676E6E6E6E6E6E6E6E6E6E6E6E6E6E6E6E6E6E6E6E6E6E6E6E6E6E6E6E6E6E676E6E6E6E6E6E676E6E6E6
310
E6E6E6E6E6E67676E6E6E6E6E6E6E6E6E6E6E6E6E6E6E6E6E6E6E6E6E6E6E6E6E6E6E6E6E6E6E6E6F5E6F5E6E6E6E6E6E6E6E6E6E6E6E6E6E6E6E6E6E6E6E6E6E6E6E6E6E6E6E6E6E6DCF5E6E6F5BE2DE6E6DCDCE6E6E6E6E6E6E6E6E6E6E6E6E6E6E6E6E6E6E6E6E6E6E6E6E6E6E6E6E6E6F5F5F5E6E6E6E6E6E6E6E6E6E6
310
E6E6F5DCE6F5F5E6DCE6F5E6E6E6E6E628E6E6E6E6E6E6E6F5F5E6E6E6E6F5E6E6E6E6E6E6E6E6E6E6E6E6E6E6E6E6E6E6E6E6E6E6E6E6E6E6E6E6E6E6E6E6E6E6E6E6E6E6E6E6E6E6E6E6E6E676E6E676E6E6E6E6E6E676E6E6E6E6E6E6E6E6E6E6E6E6E6E6E6E6E6E6E6E6E6E6E6E6E6E6E6E6E6E676E6E6E6E6E6E676E6
310
E6E6E6E6E6E6E6E67676E6E6E6E6E6E6E6E6E6E6E6E6E6E6E6E6E6E6E6E6E6E6E6E6E6E6E6E6E6E6E6E6F5E62DE6E6E6E6E6E6E6E6E6E6E6E6E6E6E6E6E6E6E6E6E6E6E6E6E6E6E6E6E6E6E6F5F5E6F5BE2DF5F5DCE6E6E6E6E6E6E6E6E6E6E6E6E6E6E6E6E6E6E6E6E6E6E6E6E6E6E6E6E6E6E62DF5F5E6E6E6E6E6E6E6E6
310
E6E6E6E6F5DCE6F5F5E6DCE6F5E6E6E6E6E628E6E6E6E6E6E6E6F5F5E6E6E6E6F5E6E6E6E6E6E6E6E6E6E6E6E6E6E6E6E6E6E6E6E6E6E6E6E6E6E6E6E6E6E6E6E6E6E6E6E6E6E6E6E6E6E6E6E6E6E676E6E676E6E6E6E6E6E676E6E6E6E6E6E6E6E6E6E6E6E6E6E6E6E6E6E6E6E6E6E6E6E6E6E6E6E6E6E676E6E6E6E6E6E6
310
76E6E6E6E6E6E6E6E6E67676E6E6E6E6E6E6E6E6E6E6E6E6E6E6E6E6E6E6E6E6E6E6E6E6E6E6E6E6E6E6E6E6F5E62DE6E6E6E6E6E6E6E6E6E6E6E6E6E6E6E6E6E6E6E6E6E6E6E6E6E6E6E6E6E6E6E6DCF5F5BE2DDCDCE6E6E6E6E6E6E6E6E6E6E6E6E6E6E6E6E6E6E6E6E6E6E6E6E6E6E6E6E6E6E6E62DF5F5E6E6E6E6E6E6
310
E6E6E6E6E6E6F5DCE6F5F5E6DCE6F5E6E6E6E6E628E6E6E6E6E6E6E6F5F5E6E6E6E6F5E6E6E6E6E6E6E6E6E6E6E6E6E6E6E6E6E6E6E6E6E6E6E6E6E6E6E6E6E6E6E6E6E6E6E6E6E6E6E6E6E6E6E6E6E6E676E6E676E6E6E6E6E6E676E6E6E6E6E6E6E6E6E6E6E6E6E6E6E6E6E6E6E6E6E6E6E6E6E6E6E6E6E6E676E6E6E6E6
310
E6E676E6E6E6E6E6E6E6E6E67676E6E6E6E6E6E6E6E6E6E6E6E6E6E6E6E6E6E6E6E6E6E6E6E6E6E6E6E6E6E6E6E6F5E62DE6E6E6E6E6E6E6E6E6E6E6E6E6E6E6E6E6E6E6E6E6E6E6E6E6E6E6E6E6E6E6E6E6E6F5BE2DE6E6E6E6E6E6E6E6E6E6E6E6E6E6E6E6E6E6E6E6E6E6E6E6E6E6E6E6E6E6E6E6E6E62DF5F5E6E6E6E6
310
E6E6E6E6E6E6E6E6DCDCE6F5F5E6DCE6F5E6E6E6E6E628E6E6E6E6E6E6E6F5F5E6E6E6E6F5E6E6E6E6E6E6E6E6E6E6E6E6E6E6E6E6E6E6E6E6E6E6E6E6E6E6E6E6E6E6E6E6E6E6E6E6E6E6E6E6E6E6E6E6E6E676E6E676E6E6E6E6E6E676E6E6E6E6E6E6E6E6E6E6E6E6E6E6E6E6E6E6E6E6E6E6E6E6E6E6E6E6E6E676E6E6
310
E6E6E6E676E6E6E6E6E6E6E6E6E67676E6E6E6E6E6E6E6E6E6E6E6E6E6E6E6E6E6E6E6E6E6E6E6E6E6E6E6E6E6E6E6E6F5E62DE6E6E6E6E6E6E6E6E6E6E6E6E6E6E6E6E6E6E6E6E6E6E6E6E6E6E6E6E6E6E6E6E6E6F5BE2DE6E6E6E6E6E6E6E6E6E6E6E6E6E6E6E6E6E6E6E6E6E6E6E6E6E6E6E6E6E6E6E6E6E62DF5F5E6E6
310
E6E6E6E6E6E6E6E6E6E6F5DCE6F5F5E6DCE6F5E6E6E6E6E628E6E6E6E6E6E6E6F5F5E6E6E6E6F5E6E6E6E6E6E6E6E6E6E6E6E6E6E6E6E6E6E6E6E6E6E6E6E6E6E6E6E6E6E6E6E6E6E6E6E6E6E6E6E6E6E6E6E6E6E676E6E676E6E6E6E6E6E676E6E6E6E6E6E6E6E6E6E6E6E6E6E6E6E6E6E6E6E6E6E6E6E6E6E6E6E6E6E676
310
E6E6E6E6E6E676E6E6E6E6E6E6E6E6E67676E6E6E6E6E6E6E6E6E6E6E6E6E6E6E6E6E6E6E6E6E6E6E6E6E6E6E6E6E6E6E6E6F5E62DE6E6E6E6E6E6E6E6E6E6E6E6E6E6E6E6E6E6E6E6E6E6E6E6E6E6E6E6E6E6E6E6E6E6F5BE2DE6E6E6E6E6E6E6E6E6E6E6E6E6E6E6E6E6E6E6E6E6E6E6E6E6E6E6E6E6E6E6E6E6E62DF5F5
310
E6E6E6E6E6E6E6E6E6E6E6E6F5E6DCF5F5E6DCE6F5E6E6E6E6E628E6E6E6E6E6E6E6F5F5E6E6E6E6F5E6E6E6E6E6E6E6E6E6E6E6E6E6E6E6E6E6E6E6E6E6E6E6E6E6E6E6E6E6E6E6E6E6E6E6E6E6E6E6E6E6E6E6E6E6E676E6E676E6E6E6E6E6E676E6E6E6E6E6E6E6E6E6E6E6E6E6E6E6E6E6E6E6E6E6E6E6E6E6E6E6E6E6
310
E676E6E6E6E6E6E676E6E6E6E6E6E6E6E6E67676E6E6E6E6E6E6E6E6E6E6E6E6E6E6E6E6E6E6E6E6E6E6E6E6E6E6E6E6E6E6E6E6F5E62DE6E6E6E6E6E6E6E6E6E6E6E6E6E6E6E6E6E6E6E6E6E6E6E6E6E6E6E6E6E6E6E6E6E6F5BE2DE6E6E6E6E6E6E6E6E6E6E6E6E6E6E6E6E6E6E6E6E6E6E6E6E6E6E6E6E6E6E6E6E6E62D
310
F5F5E6E6E6E6E6E6E6E6E6E6E6E6F5E6DCF5F5E6DCE6F5E6E6E6E6E628E6E6E6E6E6E6E6F5F5E6E6E6E6F5E6E6E6E6E6E6E6E6E6E6E6E6E6E6E6E6E6E6E6E6E6E6E6E6E6E6E6E6E6E6E6E6E6E6E6E6E6E6E6E6E6E6E6E6E6E676E6E676E6E6E6E6E6E676E6E6E6E6E6E6E6E6E6E6E6E6E6E6E6E6E6E6E6E6E6E6E6E6E6E6E6
310
E6E6E676E6E6E6E6E6E676E6E6E6E6E6E6E6E6E67676E6E6E6E6E6E6E6E6E6E6E6E6E6E6E6E6E6E6E6E6E6E6E6E6E6E6E6E6E6E6E6E6F5E62DE6E6E6E6E6E6E6E6E6E6E6E6E6E6E6E6E6E6E6E6E6E6E6E6E6E6E6E6E6E6E6E6E6E6F5BE2DE6E6E6E6E6E6E6E6E6E6E6E6E6E6E6E6E6E6E6E6E6E6E6E6E6E6E6E6E6E6E6E6E6
310
E62DF5F5E6E6E6E6E6E6E6E6E6E6E6E6F5E6DCF5F5E6DCE6F5E6E6E6E6E628E6E6E6E6E6E6E6F5F5E6E6E6E6F5E6E6E6E6E6E6E6E6E6E6E6E6E6E6E6E6E6E6E6E6E6E6E6E6E6E6E6E6E6E6E6E6E6E6E6E6E6E6E6E6E6E6E6E6E6E676E6E676E6E6E6E6E6E676E6E6E6E6E6E6E6E6E6E6E6E6E6E6E6E6E6E6E6E6E6E6E6E6E6
310
E6E6E6E6E676E6E6E6E6E6E676E6E6E6E6E6E6E6E6E67676E6E6E6E6E6E6E6E6E6E6E6E6E6E6E6E6E6E6E6E6E6E6E6E6E6E6E6E6E6E6E6E6F5E62DE6E6E6E6E6E6E6E6E6E6E6E6E6E6E6E6E6E6E6E6E6E6E6E6E6E6E6E6E6E6E6E6E6E6F5BE2DE6E6E6E6E6E6E6E6E6E6E6E6E6E6E6E6E6E6E6E6E6E6E6E6E6E6E6E6E6E6E6
310
E6E6E62DF5F5E6E6E6E6E6E6E6E6E6E6E6E6F5E6DCF5F5E6DCE6F5E6E6E6E6E628E6E6E6E6E6E6E6F5F5E6E6E6E6F5E6E6E6E6E6E6E6E6E6E6E6E6E6E6E6E6E6E6E6E6E6E6E6E6E6E6E6E6E6E6E6E6E6E6E6E6E6E6E6E6E6E6E6E6E6E676E6E676E6E6E6E6E6E676E6E6E6E6E6E6E6E6E6E6E6E6E6E6E6E6E6E6E6E6E6E6E6
310
E6E6E6E6E6E6E676E6E6E6E6E6E676E6E6E6E6E6E6E6E6E67676E6E6E6E6E6E6E6E6E6E6E6E6E6E6E6E6E6E6E6E6E6E6E6E6E6E6E6E6E6E6E6E6F5E62DE6E6E6E6E6E6E6E6E6E6E6E6E6E6E6E6E6E6E6E6E6E6E6E6E6E6E6E6E6E6E6E6E6E6F5BE2DE6E6E6E6E6E6E6E6E6E6E6E6E6E6E6E6E6E6E6E6E6E6E6E6E6E6E6E6E6
310
E6E6E6E6E62DF5F5E6E6E6E6E6E6E6E6E6E6E6E6F5E6DCF5F5E6DCE6F5E6E6E6E6E628E6E6E6E6E6E6E6F5F5E6E6E6E6F5E6E6E6E6E6E6E6E6E6E6E6E6E6E6E6E6E6E6E6E6E6E6E6E6E6E6E6E6E6E6E6E6E6E6E6E6E6E6E6E6E6E6E6E6E6E676E6E676E6E6E6E6E6E676E6E6E6E6E6E6E6E6E6E6E6E6E6E6E6E6E6E6E6E6E6
310
E6E6E6E6E6E6E6E6E676E6E6E6E6E6E676E6E6E6E6E6E6E6E6E67676E6E6E6E6E6E6E6E6E6E6E6E6E6E6E6E6E6E6E6E6E6E6E6E6E6E6E6E6E6E6E6E6F5E62DE6E6E6E6E6E6E6E6E6E6E6E6E6E6E6E6E6E6E6E6E6E6E6E6E6E6E6E6E6E6E6E6E6E6F5BE2DE6E6E6E6E6E6E6E6E6E6E6E6E6E6E6E6E6E6E6E6E6E6E6E6E6E6E6
310
E6E6E6E6E6E6E62DF5F5E6E6E6E6E6E6E6E6E6E6E6E6F5E6DCF5F5E6DCE6F5E6E6E6E6E628E6E6E6E6E6E6E6F5F5E6E6E6E6F5E6E6E6E6E6E6E6E6E6E6E6E6E6E6E6E6E6E6E6E6E6E6E6E6E6E6E6E6E6E6E6E6E6E6E6E6E6E6E6E6E6E6E6E6E6E676E6E676E6E6E6E6E6E676E6E6E6E6E6E6E6E6E6E6E6E6E6E6E6E6E6E6E6
310
E6E6E6E6E6E6E6E6E6E6E676E6E6E6E6E6E676E6E6E6E6E6E6E6E6E67676E6E6E6E6E6E6E6E6E6E6E6E6E6E6E6E6E6E6E6E6E6E6E6E6E6E6E6E6E6E6E6E6F5E62DE6E6E6E6E6E6E6E6E6E6E6E6E6E6E6E6E6E6E6E6E6E6E6E6E6E6E6E6E6E6E6E6E6E6F5BE2DE6E6E6E6E6E6E6E6E6E6E6E6E6E6E6E6E6E6E6E6E6E6E6E6E6
310
E6E6E6E6E6E6E6E6E62DF5F5E6E6E6E6E6E6E6E6E6E6E6E6F5E6DCF5F5E6DCE6F5E6E6E6E6E628E6E6E6E6E6E6E6F5F5E6E6E6E6F5E6E6E6E6E6E6E6E6E6E6E6E6E6E6E6E6E6E6E6E6E6E6E6E6E6E6E6E6E6E6E6E6E6E6E6E6E6E6E6E6E6E6E6E6E6E676E6E676E6E6E6E6E6E676E6E6E6E6E6E6E6E6E6E6E6E6E6E6E6E6E6
310
E6E6E6E6E6E6E6E6E6E6E6E6E676E6E6E6E6E6E676E6E6E6E6E6E6E6E6767676E6E6E6E6E6E6E6E6E6E6E6E6E6E6E6E6E6E6E6E6E6E6E6E6E6E6E6E6E6E6E6E6F5E62DE6E6E6E6E6E6E6E6E6E6E6E6E6E6E6E6E6E6E6E6E6E6E6E6E6E6E6E6E6E6E6E6E6E6F5BE2DE6E6E6E6E6E6E6E6E6E6E6E6E6E6E6E6E6E6E6E6E6E6E6
310
E6E6E6E6E6E6E6E6E6E6E62DF5F5E6E6E6E6E6E6E6E6E6E6E6E6F5E6DCF5F5E6DCE6F5E6E6E6E6E628E6E6E6E6E6E6E6F5F5E6E6E6E6F5E6E6E6E6E6E6E6E6E6E6E6E6E6E6E6E6E6E6E6E6E6E6E6E6E6E6E6E6E6E6E6E6E6E6E6E6E6E6E6E6E6E6E6E6E6E67676E676E6E6E6E6E6E676E6E6E6E6E6E6E6E6E6E6E6E6E6E6E6
310
E6E6E6E6E6E6E6E6E6E6E6E6E6E6E676E6E6E6E6E6E676E6E6E6E6E6E6E6E6767676E6E6E6E6E6E6E6E6E6E6E6E6E6E6E6E6E6E6E6E6E6E6E6E6E6E6E6E6E6E6E6E6F5E62DE6E6E6E6E6E6E6E6E6E6E6E6E6E6E6E6E6E6E6E6E6E6E6E6E6E6E6E6E6E6E6E6E6E6F5BE2DE6E6E6E6E6E6E6E6E6E6E6E6E6E6E6E6E6E6E6E6E6
310
E6E6E6E6E6E6E6E6E6E6E6E6E62DF5F5E6E6E6E6E6E6E6E6E6E6E6E6F5E6DCF5F5E6DCE6F5E6E6E6E6E628E6E6E6E6E6E6E6F5F5E6E6E6E6F5E6E6E6E6E6E6E6E6E6E6E6E6E6E6E6E6E6E6E6E6E6E6E6E6E6E6E6E6E6E6E6E6E6E6E6E6E6E6E6E6E6E6E6E6E6E67676E676E6E6E6E6E6E676E6E6E6E6E6E6E6E6E6E6E6E6E6
310
E6E6E6E6E6E6E6E6E6E6E6E6E6E6E6E6E676E6E6E6E6E6E676E6E6E6E6E6E6E6E6E67676E6E6E6E6E6E6E6E6E6E6E6E6E6E6E6E6E6E6E6E6E6E6E6E6E6E6E6E6E6E6E6E6F5E62DE6E6E6E6E6E6E6E6E6E6E6E6E6E6E6E6E6E6E6E6E6E6E6E6E6E6E6E6E6E6E6E6E6E6F5BE2DE6E6E6E6E6E6E6E6E6E6E6E6E6E6E6E6E6E6E6
310
E6E6E6E6E6E6E6E6E6E6E6E6E6E6E62DF5F5E6E6E6E6E6E6E6E6E6E6E6E6F5E6DCF5F5E6DCE6F5E6E6E6E6E628E6E6E6E6E6E6E6F5F5E6E6E6E6F5E6E6E6E6E6E6E6E6E6E6E6E6E6E6E6E6E6E6E6E6E6E6E6E6E6E6E6E6E6E6E6E6E6E6E6E6E6E6E6E6E6E6E6E6E6E676E6E676E6E6E6E6E6E676E6E6E6E6E6E6E6E6E6E6E6
310
E6E6E6E6E6E6E6E6E6E6E6E6E6E6E6E6E6E6E676E6E6E6E6E6E676E6E6E6E6E6E6E6E6E67676E6E6E6E6E6E6E6E6E6E6E6E6E6E6E6E6E6E6E6E6E6E6E6E6E6E6E6E6E6E6E6E6F5E62DE6E6E6E6E6E6E6E6E6E6E6E6E6E6E6E6E6E6E6E6E6E6E6E6E6E6E6E6E6E6E6E6E6E6F5BE2DE6E6E6E6E6E6E6E6E6E6E6E6E6E6E6E6E6
310
E6E6E6E6E6E6E6E6E6E6E6E6E6E6E6E6E62DF5F5E6E6E6E6E6E6E6E6E6E6E6E6F5E6DCF52D2DDCE6F5E6E6E6E6E628E6E6E6E6E6E6E6F5F5E6E6E6E6F5E6E6E6E6E6E6E6E6E6E6E6E6E6E6E6E6E6E6E6E6E6E6E6E6E6E6E6E6E6E6E6E6E6E6E6E6E6E6E6E6E6E6E6E6E6E676E6E676E6E6E6E6E6E676E6E6E6E6E6E6E6E6E6
310
E6E6E6E6E6E6E6E6E6E6E6E6E6E6E6E6E6E6E6E6E676E6E6E6E6E6E676E6E6E6E6E6E6E6E6E67676E6E6E6E6E6E6E6E6E6E6E6E6E6E6E6E6E6E6E6E6E6E6E6E6E6E6E6E6E6E6E6E6F5E62DE6E6E6E6E6E6E6E6E6E6E6E6E6E6E6E6E6E6E6E6E6E6E6E6E6E6E6E6E6E6E6E6E6E6F5BE2DE6E6E6E6E6E6E6E6E6E6E6E6E6E6E6
310
E6E6E6E6E6E6E6E6E6E6E6E6E6E6E6E6E6E6E62DF5F5E6E6E6E6E6E6E6E6E6E6E6E6F5E6DCF52D2DDCE6F5E6E6E6E6E628E6E6E6E6E6E6E6F5F5E6E6E6E6F5E6E6E6E6E6E6E6E6E6E6E6E6E6E6E6E6E6E6E6E6E6E6E6E6E6E6E6E6E6E6E6E6E6E6E6E6E6E6E6E6E6E6E6E6E6E676E6E676E6E6E6E6E6E676E6E6E6E6E6E6E6
310
E6E6E6E6E6E6E6E6E6E6E6E6E6E6E6E6E6E6E6E6E6E6E676E6E6E6E6E6E676E6E6E6E6E6E6E6E6E67676E6E6E6E6E6E6E6E6E6E6E6E6E6E6E6E6E6E6E6E6E6E6E6E6E6E6E6E6E6E6E6E6F5E62DE6E6E6E6E6E6E6E6E6E6E6E6E6E6E6E6E6E6E6E6E6E6E6E6E6E6E6E6E6E6E6E6E6E6F5BE2DE6E6E6E6E6E6E6E6E6E6E6E6E6
310
E6E6E6E6E6E6E6E6E6E6E6E6E6E6E6E6E6E6E6E6E62DF5F5E6E6E6E6E6E6E6E6E6E6E6E6F5E6DCF52D2DDCE6F5E6E6E6E6E628E6E6E6E6E6E6E6F5F5E6E6E6E6F5E6E6E6E6E6E6E6E6E6E6E6E6E6E6E6E6E6E6E6E6E6E6E6E6E6E6E6E6E6E6E6E6E6E6E6E6E6E6E6E6E6E6E6E6E6E676E6E676E6E6E6E6E6E676E6E6E6E6E6
310
E6E6E6E6E6E6E6E6E6E6E6E6E6E6E6E6E6E6E6E6E6E6E6E6E676E6E6E6E6E6E676E6E6E6E6E6E6E6E6E67676E6E6E6E6E6E6E6E6E6E6E6E6E6E6E6E6E6E6E6E6E6E6E6E6E6E6E6E6E6E6E6E6F5E62DE6E6E6E6E6E6E6E6E6E6E6E6E6E6E6E6E6E6E6E6E6E6E6E6E6E6E6E6E6E6E6E6E6E6F5BE2DE6E6E6E6E6E6E6E6E6E6E6
310
E6E6E6E6E6E6E6E6E6E6E6E6E6E6E6E6E6E6E6E6E6E6E62DF5F5E6E6E6E6E6E6E6E6E6E6E6E6F5E6DCF52D2DDCE6F5E6E6E6E6E628E6E6E6E6E6E6E6F5F5E6E6E6E6F5E6E6E6E6E6E6E6E6E6E6E6E6E6E6E6E6E6E6E6E6E6E6E6E6E6E6E6E6E6E6E6E6E6E6E6E6E6E6E6E6E6E6E6E6E6E676E6E676E6E6E6E6E6E676E6E6E6
310
E6E6E6E6E6E6E6E6E6E6E6E6E6E6E6E6E6E6E6E6E6E6E6E6E6E6E676E6E6E6E6E6E676E6E6E6E6E6E6E6E6E67676E6E6E6E6E6E6E6E6E6E6E6E6E6E6E6E6E6E6E6E6E6E6E6E6E6E6E6E6E6E6E6E6F5E6F5E6E6E6E6E6E6E6E6E6E6E6E6E6E6E6E6E6E6E6E6E6E6E6E6E6E6E6E6E6E6E6E6E6E62DF52DE6E6E6E6E6E6E6E6E6
310
E6E6E6E6E6E6E6E6E6E6E6E6E6E6E6E6E6E6E6E6E6E6E6E6E6F5F5F5E6E6E6E6E6E6E6E6E6E6E6E6F5E6DCF5F5E6DCE6F5E6E6E6E6E628E6E6E6E6E6E6E6F5F5E6E6E6E6F5E6E6E6E6E6E6E6E6E6E6E6E6E6E6E6E6E6E6E6E6E6E6E6E6E6E6E6E6E6E6E6E6E6E6E6E6E6E6E6E6E6E6E6E6E6E676E6E676E6E6E6E6E6E676E6
310
E6E6E6E6E6E6E6E6E6E6E6E6E6E6E6E6E6E6E6E6E6E6E6E6E6E6E6E6E676E6E6E6E6E6E676E6E6E6E6E6E6E6E6E67676E6E6E6E6E6E6E6E6E6E6E6E6E6E6E6E6E6E6E6E6E6E6E6E6E6E6E6E6E6E6E6E6F5E6F52DE6E6E6E6E6E6E6E6E6E6E6E6E6E6E6E6E6E6E6E6E6E6E6E6E6E6E6E6E6E6E6E62D2DF52D2DE6E6E6E6E6E6
310
E6E6E6E6E6E6E6E6E6E6E6E6E6E6E6E6E6E6E6E6E6E6E6E6E6E62DF5F5F5E6E6E6E6E6E6E6E6E6E6E6E6F5E6DCF5F5DCDCE6F5E6E6E6E6E628E6E6E6E6E6E6E6F5F5F5F5F5F5F5E6E6E6E6E6E6E6E6E6E6E6E6E6E6E6E6E6E6E6E6E6E6E6E6E6E6E6E6E6E6E6E6E6E6E6E6E6E6E6E6E6E6E6E6E6E676E6E676E6E6E6E6E6E6
310
76E6E6E6E6E6E6E6E6E6E6E6E6E6E6E6E6E6E6E6E6E6E6E6E6E6E6E6E6E6E676E6E6E6E6E6E676E6E6E6E6E6E6E6E6E67676E6E6E6E6E6E6E6E6E6E6E6E6E6E6E6E6E6E6E6E6E6E6E6E6E6E6E6E6E6E6E6E6F5E6F5F5F5F5F5F5F5F5F5F5F5F5F5F5F5F5F5F5F5F5F5F5F5F5F5F5F5F5F5F5F5F5F52D2DF5F5F52D2DF5F5F5
310
F5F5F5F5F5F5F5F5F5F5F5F5F5F5F5F5F5F5F5F5F5F5F5F5F5F5F5F5F5F5F5F5E6E6E6E6E6E6E6E6E6E6E6E6F5F5F5F5F5E6DCE6F5E6E6E6E6E62828E6E6E6E6E6E6F5F5F5F5C3C3F5E6E6E6E6E6E6E6E6E6E6E6E6E6E6E6E6E6E6E6E6E6E6E6E6E6E6E6E6E6E6E6E6E6E6E6E6E6E6E6E6E6E6E6E6E6E676E6E676E6E6E6E6
310
E6E676E6E6E6E6E6E6E6E6E6E6E6E6E6E6E6E6E6E6E6E6E6E6E6E6E6E6E6E6E6E676E6E6E6E6E6E676E6E6E6E6E6E6E6E6E67676E6E6E6E6E6E6E6E6E6E6E6E6E6E6E6E6E6E6E6E6E6E6E6E6E6E6E6E6E6E6E6E6F5F5F5F5F5F5F5F5F5F5F5F5F5F5F5F5F5F5F5F5F5F5F5F5F5F5F5F5F5F5F5F5F5F5F5F5F5F5BEF5F5F5F5
310
F5F5F5F5F5F5F5F5F5F5F5F5F5F5F5F5F5F5F5F5F5F5F5F5F5F5F5F5F5F5F5F5F5F5E6E6E6E6E6E6E6E6E6E6E6E6E6E6E6E6F5F5DCDC2828282828282828E6E6E6E6E6E6E6E6E6F5F5F5F5F5F5E6E6E6E6E6E6E6E6E6E6E6E6E6E6E6E6E6E6E6E6E6E6E6E6E6E6E6E6E6E6E6E6E6E6E6E6E6E6E6E6E6E6E6E676E6E676E6E6
310
E6E6E6E676E6E6E6E6E6E6E6E6E6E6E6E6E6E6E6E6E6E6E6E6E6E6E6E6E6E6E6E6E6E676E6E6E6E6E6E676E6E6E6E6E6E6E6E6E67676E6E6E6E6E6E6E6E6E6E6E6E6E6E6E6E6E6E6E6E6E6E6E6E6E6E6E6E6E6E6E6E6E6E6E6E6E6E6E6E6E6E6E6E6E6E6E6E6E6E6E6E6E6E6E6E6E6E6E6E6E6E6E6E6E6E6E6E6E6E6F5E6E6
310
E6E6E6E6E6E6E6E6E6E6E6E6E6E6E6E6E6E6E6E6E6E6E6E6E6E6E6E6E6E6E6E6E6E6E6E6E6E6E6E6E6E6E6E6E6E6E6E6E6E6E6E6E6E6E6E6E6E6E6E6E6E6E6E6E6E6E6E6E6E6E6E6E6E6E6E6E6E6E6E6E6E6E6E6E6E6E6E6E6E6E6E6E6E6E6E6E6E6E6E6E6E6E6E6E6E6E6E6E6E6E6E6E6E6E6E6E6E6E6E6E6E6E676E6E676
310
E6E6E6E6E6E676E6E6E6E6E6E6E6E6E6E6E6E6E6E6E6E6E6E6E6E6E6E6E6E6E6E6E6E6E6E676E6E6E6E6E6E676E6E6E6E6E6E6E6E6E67676E6E6E6E6E6E6E6E6E6E6E6E6E6E6E6E6E6E6E6E6E6E6E6E6E6E6E6E6E6E6E6E6E6E6E6E6E6E6E6E6E6E6E6E6E6E6E6E6E6E6E6E6E6E6E6E6E6E6E6E6E6E6E6E6E6F5F5F5F5F5F5
310
F5E6E6E6E6E6E6E6E6E6E6E6E6E6E6E6E6E6E6E6E6E6E6E6E6E6E6E6E6E6E6E6E6E6E6E6E6E6E6E6E6E6E6E6E6E6E6E6E6E6E6E6E6E6E6E6E6E6E6E6E6E6E6E6E6E6E6E6E6E6E6E6E6E6E6E6E6E6E6E6E6E6E6E6E6E6E6E6E6E6E6E6E6E6E6E6E6E6E6E6E6E6E6E6E6E6E6E6E6E6E6E6E6E6E6E6E6E6E6E6E6E6E6E6E676E6
310
E676E6E6E6E6E6E676E6E6E6E6E6E6E6E6E6E6E6E6E6E6E6E6E6E6E6E6E6E6E6E6E6E6E6E6E6E676E6E6E6E6E6E676E6E6E6E6E6E6E6E6E67676E6E6E6E6E6E6E6E6E6E6E6E6E6E6E6E6E6E6E6E6E6E6E6E6E6E6E6E6E6E6E6E6E6E6E6E6E6E6E6E6E6E6E6E6E6E6E6E6E6E6E6E6E6E6E6E6E6E6E6E6E6E6E6E6E6E6E6E6F5
310
F5C3F5E6E6E6E6E6E6E6E6E6E6E6E6E6E6E6E6E6E6E6E6E6E6E6E6E6E6E6E6E6E6E6E6E6E6E6E6E6E6E6E6E6E6E6E6E6E6E6E6E6E6E6E6E6E6E6E6E6E6E6E6E6E6E6E6E6E6E6E6E6E6E6E6E6E6E6E6E6E6E6E6E6E6E6E6E6E6E6E6E6E6E6E6E6E6E6E6E6E6E6E6E6E6E6E6E6E6E6E6E6E6E6E6E6E6E6E6E6E6E6E6E6E6E6E6
310
76E6E676E6E6E6E6E6E676E6E6E6E6E6E6E6E6E6E6E6E6E6E6E6E6E6E6E6E6E6E6E6E6E6E6E6E6E6E676E6E6E6E6E6E676E6E6E6E6E6E6E6E6E67676E6E6E6E6E6E6E6E6E6E6E6E6E6E6E6E6E6E6E6E6E6E6E6E6E6E6E6E6E6E6E6E6E6E6E6E6E6E6E6E6E6E6E6E6E6E6E6E6E6E6E6E6E6E6E6E6E6E6E6E6E6E6E6E6E6E6E6
310
E6E6E6F5E6E6E6E6E6E6E6E6E6E6E6E6E6E6E6E6E6E6E6E6E6E6E6E6E6E6E6E6E6E6E6E6E6E6E6E6E6E6E6E6E6E6E6E6E6E6E6E6E6E6E6E6E6E6E6E6E6E6E6E6E6E6E6E6E6E6E6E6E6E6E6E6E6E6E6E6E6E6E6E6E6E6E6E6E6E6E6E6E6E6E6E6E6E6E6E6E6E6E6E6E6E6E6E6E6E6E6E6E6E6E6E6E6E6E6E6E6E6E6E6E6E6E6
310
E6E676E6E676E6E6E6E6E6E676E6E6E6E6E6E6E6E6E6E6E6E6E6E6E6E6E6E6E6E6E6E6E6E6E6E6E6E6E6E676E6E6E6E6E6E676E6E6E6E6E6E6E6E6E67676E6E6E6E6E6E6E6E6E6E6E6E6E6E6E6E6E6E6E6E6E6E6E6E6E6E6E6E6E6E6E6E6E6E6E6E6E6E6E6E6E6E6E6E6E6E6E6E6E6E6E6E6E6E6E6E6E6E6E6E6E6E6E6E6E6
310
E6E6E6E6E6E6E6E6E6E6E6E6E6E6E6E6E6E6E6E6E6E6E6E6E6E6E6E6E6E6E6E6E6E6E6E6E6E6E6E6E6E6E6E6E6E6E6E6E6E6E6E6E6E6E6E6E6E6E6E6E6E6E6E6E6E6E6E6E6E6E6E6E6E6E6E6E6E6E6E6E6E6E6E6E6E6E6E6E6E6E6E6E6E6E6E6E6E6E6E6E6E6E6E6E6E6E6E6E6E6E6E6E6E6E6E6E6E6E6E6E6E6E6E6E6E6E6
310
E6E6E6E676E6E676E6E6E6E6E6E676E6E6E6E6E6E6E6E6E6E6E6E6E6E6E6E6E6E6E6E6E6E6E6E6E6E6E6E6E6E676E6E6E6E6E6E676E6E6E6E6E6E6E6E6E67676E6E6E6E6E6E6E6E6E6E6E6E6E6E6E6E6E6E6E6E6E6E6E6E6E6E6E6E6E6E6E6E6E6E6E6E6E6E6E6E6E6E6E6E6E6E6E6E6E6E6E6E6E6E6E6E6E6E6E6E6E6E6E6
310
E6E6E6E6E6E6E6E6E6E6E6E6E6E6E6E6E6E6E6E6E6E6E6E6E6E6E6E6E6E6E6E6E6E6E6E6E6E6E6E6E6E6E6E6E6E6E6E6E6E6E6E6E6E6E6E6E6E6E6E6E6E6E6E6E6E6E6E6E6E6E6E6E6E6E6E6E6E6E6282828282828282828E6E6E6E6E6E6E6E6E6E6E6E6E6E6E6E6E6E6E6E6E6E6E6E6E6E6E6E6E6E6E6E6E6E6E6E6E6E6E6
310
E6E6E6E6E6E676E6E676E6E6E6E6E6E676E6E6E6E6E6E6E6E6E6E6E6E6E6E6E6E6E6E6E6E6E6E6E6E6E6E6E6E6E6E676E6E6E6E6E6E676E6E6E6E6E6E6E6E6E67676E6E6E6E6E6E6E6E6E6E6E6E6E6E6E6E6E6E6E6E6E6E6E6E6E6E6E6E6E6E6E6E6E6E6E6E6E6E6E6E6E6E6E6E6E6E6E6E6E6E6E6E6E6E6E6E6E6E6E6E6E6
310
E6E6E6E6E6E6E6E6E6E6E6E6E6E6E6E6E6E6E6E6E6E6E6E6E6E6E6E6E6E6E6E6E6E6E6E6E6E6E6E6E6E6E6E6E6E6E6E6E6E6E6E6E6E6E6E6E6E6E6E6E6E6E6E6E6E6E6E6E6E6E6E6E6E6E6E6E6E6E6E6E6E6F5F5F5F5F5F5F5E6E6E6E6E6E6E6E6E6E6E6E6E6E6E6E6E6E6E6E6E6E6E6E6E6E6E6E6E6E6E6E6E6E6E6E6E6E6
310
E6E6E6E6E6E6E6E676E6E676E6E6E6E6E6E676E6E6E6E6E6E6E6E6E6E6E6E6E6E6E6E6E6E6E6E6E6E6E6E6E6E6E6E6E6E676E6E6E6E6E6E676E6E6E6E6E6E6E6E6E67676E6E6E6E6E6E6E6E6E6E6E6E6E6E6E6E6E6E6E6E6E6E6E6E6E6E6E6E6E6E6E6E6E6E6E6E6E6E6E6E6E6E6E6E6E6E6E6E6E6E6E6E6E6E6E6E6E6E6E6
310
E6E6E6E6E6E6E6E6E6E6E6E6E6E6E6E6E6E6E6E6E6E6E6E6E6E6E6E6E6E6E6E6E6E6E6E6E6E6E6E6E6E6E6E6E6E6E6E6E6E6E6E6E6E6E6E6E6E6E6E6E6E6E6E6E6E6E6E6E6E6E6E6E6E6E6E6E6E6E6E6E6E6E6E6F5F5F5F5F5F5F5E6E6E6E6E6E6E6E6E6E6E6E6E6E6E6E6E6E6E6E6E6E6E6E6E6E6E6E6E6E6E6E6E6E6E6E6
310
E6E6E6E6E6E6E6E6E6E676E6E676E6E6E6E6E6E676E6E6E6E6E6E6E6E6E6E6E6E6E6E6E6E6E6E6E6E6E6E6E6E6E6E6E6E6E6E676E6E6E6E6E6E676E6E6E6E6E6E6E6E6767676E6E6E6E6E6E6E6E6E6E6E6E6E6E6E6E6E6E6E6E6E6E6E6E6E6E6E6E6E6E6E6E6E6E6E6E6E6E6E6E6E6E6E6E6E6E6E6E6E6E6E6E6E6E6E6E6E6
310
E6E6E6E6E6E6E6E6E6E6E6E6E6E6E6E6E6E6E6E6E6E6E6E6E6E6E6E6E6E6E6E6E6E6E6E6E6E6E6E6E6E6E6E6E6E6E6E6E6E6E6E6E6E6E6E6E6E6E6E6E6E6E6E6E6E6E6E6E6E6E6E6E6E6E6E6E6E6E6E6E6E6E6E6E6E6E6E6E6E6E6E6E6E6E6E6E6E6E6E6E6E6E6E6E6E6E6E6E6E6E6E6E6E6E6E6E6E6E6E6E6E6E6E6E6E6E6
310
E6E6E6E6E6E6E6E6E6E6E6E67676E676E6E6E6E6E6E676E6E6E6E6E6E6E6E6E6E6E6E6E6E6E6E6E6E6E6E6E6E6E6E6E6E6E6E6E6E676E6E6E6E6E6E676E6E6E6E6E6E6E6E6E67676E6E6E6E6E6E6E6E6E6E6E6E6E6E6E6E6E6E6E6E6E6E6E6E6E6E6E6E6E6E6E6E6E6E6E6E6E6E6E6E6E6E6E6E6E6E6E6E6E6E6E6E6E6E6E6
310
E6E6E6E6E6E6E6E6E6E6E6E6E6E6E6E6E6E6E6E6E6E6E6E6E6E6E6E6E6E6E6E6E6E6E6E6E6E6E6E6E6E6E6E6E6E6E6E6E6E6E6E6E6E6E6E6E6E6E6E6E6E6E6E6E6E6E6E6E6E6E6E6E6E6E6E6E6E6E6E6E6E6E6E6E6E6E6E6E6E6E6E6E6E6E6E6E6E6E6E6E6E6E6E6E6E6E6E6E6E6E6E6E6E6E6E6E6E6E6E6E6E6E6E6E6E6E6
310
E6E6E6E6E6E6E6E6E6E6E6E6E6E676E6E676E6E6E6E6E6E676E6E6E6E6E6E6E6E6E6E6E6E6E6E6E6E6E6E6E6E6E6E6E6E6E6E6E6E6E6E676E6E6E6E6E6E676E6E6E6E6E6E6E6E6E67676E6E6E6E6E6E6E6E6E6E6E6E6E6E6E6E6E6E6E6E6E6E6E6E6E6E6E6E6E6E6E6E6E6E6E6E6E6E6E6E6E6E6E6E6E6E6E6E6E6E6E6E6E6
310
E6E6E6E6E6E6E6E6E6E6E6E6E6E6E6E6E6E6E6E6E6E6E6E6E6E6E6E6E6E6E6E6E6E6E6E6E6E6E6E6E6E6E6E6E6E6E6E6E6E6E6E6E6E6E6E6E6E6E6E6E6E6E6E6E6E6E6E6E6E6E6E6E6E6E6E6E6E6E6E6E6E6E6E6E6E6E6E6E6E6E6E6E6E6E6E6E6E6E6E6E6E6E6E6E6E6E6E6E6E6E6E6E6E6E6E6E6E6E6E6E6E6E6E6E6E6E6
310
E6E6E6E6E6E6E6E6E6E6E6E6E6E6E6E676E6E676E6E6E6E6E6E676E6E6E6E6E6E6E6E6E6E6E6E6E6E6E6E6E6E6E6E6E6E6E6E6E6E6E6E6E6E676E6E6E6E6E6E676E6E6E6E6E6E6E6E6E67676E6E6E6E6E6E6E6E6E6E6E6E6E6E6E6E6E6E6E6E6E6E6E6E6E6E6E6E6E6E6E6E6E6E6E6E6E6E6E6E6E6E6E6E6E6E6E6E6E6E6E6
310
E6E6E6E6E6E6E6E6E6E6E6E6E6E6E6E6E6E6E6E6E6E6E6E6E6E6E6E6E6E6E6E6E6E6E6E6E6E6E6E6E6E6E6E6E6E6E6E6E6E6E6E6E6E6E6E6E6E6E6E6E6E6E6E6E6E6E6E6E6E6E6E6E6E6E6E6E6E6E6E6E6E6E6E6E6E6E6E6E6E6E6E6E6E6E6E6E6E6E6E6E6E6E6E6E6E6E6E6E6E6E6E6E6E6E6E6E6E6E6E6E6E6E6E6E6E6E6
310
E6E6E6E6E6E6E6E6E6E6E6E6E6E6E6E6E6E676E6E676E6E6E6E6E6E676E6E6E6E6E6E6E6E6E6E6E6E6E6E6E6E6E6E6E6E6E6E6E6E6E6E6E6E6E6E676E6E6E6E6E6E676E6E6E6E6E6E6E6E6E67676E6E6E6E6E6E6E6E6E6E6E6E6E6E6E6E6E6E6E6E6E6E6E6E6E6E6E6E6E6E6E6E6E6E6E6E6E6E6E6E6E6E6E6E6E6E6E6E6E6
310
E6E6E6E6E6E6E6E6E6E6E6E6E6E6E6E6E6E6E6E6E6E6E6E6E6E6E6E6E6E6E6E6E6E6E6E6E6E6E6E6E6E6E6E6E6E6E6E6E6E6E6E6E6E6E6E6E6E6E6E6E6E6E6E6E6E6E6E6E6E6E6E6E6E6E6E6E6E6E6E6E6E6E6E6E6E6E6E6E6E6E6E6E6E6E6E6E6E6E6E6E6E6E6E6E6E6E6E6E6E6E6E6E6E6E6E6E6E6E6E6E6E6E6E6E6E6E6
310
E6E6E6E6E6E6E6E6E6E6E6E6E6E6E6E6E6E6E6E676E6E676E6E6E6E6E6E676E6E6E6E6E6E6E6E6E6E6E6E6E6E6E6E6E6E6E6E6E6E6E6E6E6E6E6E6E6E676E6E6E6E6E6E676E6E6E6E6E6E6E6E6E67676E6E6E6E6E6E6E6E6E6E6E6E6E6E6E6E6E6E6E6E6E6E6E6E6E6E6E6E6E6E6E6E6E6E6E6E6E6E6E6E6E6E6E6E6E6E6E6
310
E6E6E6E6E6E6E6E6E6E6E6E6E6E6E6E6E6E6E6E6E6E6E6E6E6E6E6E6E6E6E6E6E6E6E6E6E6E6E6E6E6E6E6E6E6E6E6E6E6E6E6E6E6E6E6E6E6E6E6E6E6E6E6E6E6E6E6E6E6E6E6E6E6E6E6E6E6E6E6E6E6E6E6E6E6E6E6E6E6E6E6E6E6E6E6E6E6E6E6E6E6E6E6E6E6E6E6E6E6E6E6E6E6E6E6E6E6E6E6E6E6E6E6E6E6E6E6
310
E6E6E6E6E6E6E6E6E6E6E6E6E6E6E6E6E6E6E6E6E6E676E6E676E6E6E6E6E6E676E6E6E6E6E6E6E6E6E6E6E6E6E6E6E6E6E6E6E6E6E6E6E6E6E6E6E6E6E6E676E6E6E6E6E6E676E6E6E6E6E6E6E6E6E67676E6E6E6E6E6E6E6E6E6E6E6E6E6E6E6E6E6E6E6E6E6E6E6E6E6E6E6E6E6E6E6E6E6E6E6E6E6E6E6E6E6E6E6E6E6
310
E6E6E6E6E6E6E6E6E6E6E6E6E6E6E6E6E6E6E6E6E6E6E6E6E6E6E6E6E6E6E6E6E6E6E6E6E6E6E6E6E6E6E6E6E6E6E6E6E6E6E6E6E6E6E6E6E6E6E6E6E6E6E6E6E6E6E6E6E6E6E6E6E6E6E6E6E6E6E6E6E6E6E6E6E6E6E6E6E6E6E6E6E6E6E6E6E6E6E6E6E6E6E6E6E6E6E6E6E6E6E6E6E6E6E6E6E6E6E6E6E6E6E6E6E6E6E6
310
E6E6E6E6E6E6E6E6E6E6E6E6E6E6E6E6E6E6E6E6E6E6E6E676E6E676E6E6E6E6E6E676E6E6E6E6E6E6E6E6E6E6E6E6E6E6E6E6E6E6E6E6E6E6E6E6E6E6E6E6E6E676E6E6E6E6E6E676E6E6E6E6E6E6E6E6E67676E6E6E6E6E6E6E6E6E6E6E6E6E6E6E6E6E6E6E6E6E6E6E6E6E6E6E6E6E6E6E6E6E6E6E6E6E6E6E6E6E6E6E6
310
E6E6E6E6E6E6E6E6E6E6E6E6E6E6E6E6E6E6E6E6E6E6E6E6E6E6E6E6E6E6E6E6E6E6E6E6E6E6E6E6E6E6E6E6E6E6E6E6E6E6E6E6E6E6E6E6E6E6E6E6E6E6E6E6E6E6E6E6E6E6E6E6E6E6E6E6E6E6E6E6E6E6E6E6E6E6E6E6E6E6E6E6E6E6E6E6E6E6E6E6E6E6E6E6E6E6E6E6E6E6E6E6E6E6E6E6E6E6E6E6E6E6E6E6E6E6E6
310
E6E6E6E6E6E6E6E6E6E6E6E6E6E6E6E6E6E6E6E6E6E6E6E6E6E676E6E676E6E6E6E6E6E676E6E6E6E6E6E6E6E6E6E6E6E6E6E6E6E6E6E6E6E6E6E6E6E6E6E6E6E6E6E676E6E6E6E6E6E676E6E6E6E6E6E6E6E6E67676E6E6E6E6E6E6E6E6E6E6E6E6E6E6E6E6E6E6E6E6E6E6E6E6E6E6E6E6E6E6E6E6E6E6E6E6E6E6E6E6E6
310
E6E6E6E6E6E6E6E6E6E6E6E6E6E6E6E6E6E6E6E6E6E6E6E6E6E6E6E6E6E6E6E6E6E6E6E6E6E6E6E6E6E6E6E6E6E6E6E6E6E6E6E6E6E6E6E6E6E6E6E6E6E6E6E6E6E6E6E6E6E6E6E6E6E6E6E6E6E6E6E6E6E6E6E6E6E6E6E6E6E6E6E6E6E6E6E6E6E6E6E6E6E6E6E6E6E6E6E6E6E6E6E6E6E6E6E6E6E6E6E6E6E6E6E6E6E6E6
310
E6E6E6E6E6E6E6E6E6E6E6E6E6E6E6E6E6E6E6E6E6E6E6E6E6E6E6E676E6E676E6E6E6E6E6E676E6E6E6E6E6E6E6E6E6E6E6E6E6E6E6E6E6E6E6E6E6E6E6E6E6E6E6E6E6E676E6E6E6E6E6E676E6E6E6E6E6E6E6E6E67676E6E6E6E6E6E6E6E6E6E6E6E6E6E6E6E6E6E6E6E6E6E6E6E6E6E6E6E6E6E6E6E6E6E6E6E6E6E6E6
310
E6E6E6E6E6E6E6E6E6E6E6E6E6E6E6E6E6E6E6E6E6E6E6E6E6E6E6E6E6E6E6BEE6E6E6E6E6E6E6E6E6E6E6E6E6E6E6E6E6E6E6E6E6E6E6E6E6E6E6E6E6E6E6E6E6E6E6E6E6E6E6E6E6E6E6E6E6E6E6E6E6E6E6E6E6E6E6E6E6E6E6E6E6E6E6E6E6E6E6E6E6E6E6E6E6E6E6E6E6E6E6E6E6E6E6E6E6E6E6E6E6E6E6E6E6E6E6
310
E6E6E6E6E6E6E6E6E6E6E6E6E6E6E6E6E6E6E6E6E6E6E6E6E6E6E6E6E6E676E6E676E6E6E6E6E6E676E6E6E6E6E6E6E6E6E6E6E6E6E6E6E6E6E6E6E6E6E6E6E6E6E6E6E6E6E6E676E6E6E6E6E6E676E6E6E6E6E6E6E6E6E67676E6E6E6E6E6E6E6E6E6E6E6E6E6E6E6E6E6E6E6E6E6E6E6E6E6E6E6E6E6E6E6E6E6F5F5F5F5
310
F5F5F5F5F5F5F5F5F5F5F5F5F5F5F5F5F5F5F5F5F5F5F5F5F5F5F5DCF5F5F5F5F5BEF5F5F5F5F5DCF5F5F5F5F5F5F5F5F5F5F5F5F5F5F5F5F5F5F5F5F5F5F5F5F5F5F5F5F5F52828282828282828E6E6E6E6E6E6E6E6E6E6E6E6E6E6E6E6E6E6E6E6E6E6E6E6E6E6E6E6E6E6E6E6E6E6E6E6E6E6E6E6E6E6E6E6E6E6E6E6E6
310
E6E6E6E6E6E6E6E6E6E6E6E6E6E6E6E6E6E6E6E6E6E6E6E6E6E6E6E6E6E6E6E676E6E676E6E6E6E6E6E676E6E6E6E6E6E6E6E6E6E6E6E6E6E6E6E6E6E6E6E6E6E6E6E6E6E6E6E6E6E676E6E6E6E6E6E676E6E6E6E6E6E6E6E6E67676E6E6E6E6E6E6E6E6E6E6E6E6E6E6E6E6E6E6E6E6E6E6E6E6E6E6E6E6E6E6E6E6E6F5DC
310
DCDCDCDCDCDCDCDCDCDCDCDCDCDCDCDCDCDCDCDCDCDCDCDCDCDCDCDCDCDCDCDCDCDCDCDCDCDCDCDCDCDCDCDCDCDCDCDCDCDCDCDCDCDCDCDCDCDCDCDCDCDCDCDCDCDCDCDCDCDCDCDCF5E6E6E6E6E62828E6E6E6E6E6E6E6E6E6E6E6E6E6E6E6E6E6E6E6E6E6E6E6E6E6E6E6E6E6E6E6E6E6E6E6E6E6E6E6E6E6E6E6E6E6E6E6
310
E6E6E6E6E6E6E6E6E6E6E6E6E6E6E6E6E6E6E6E6E6E6E6E6E6E6E6E6E6E6E6E6E6E676E6E676E6E6E6E6E6E676E6E6E6E6E6E6E6E6E6E6E6E6E6E6E6E6E6E6E6E6E6E6E6E6E6E6E6E6E6E676E6E6E6E6E6E676E6E6E6E6E6E6E6E6E67676E6E6E6E6E6E6E6E6E6E6E6E6E6E6E6E6E6E6E6E6E6E6E6E6E6E6E6E6E6E6E6E6E6
310
F5DCE6E6E6E6E6E6E6E6E6E6E6E6E6E6E6E6E6E6E6E6E6E6E6E6E6E6E6E6E6E6E6E6E6E6DCBEDCE6E6E6E6E6E6E6E6E6E6E6E6E6E6E6E6E6E6E6E6E6E6E6E6E6E6E6E6E6E6E6E6E6E6DCF5E6E6E6E6E6E628E6E6E6E6E6E6E6E6E6E6E6E6E6E6E6E6E6E6E6E6E6E6E6E6E6E6E6E6E6E6E6E6E6E6E6E6E6E6E6E6E6E6E6E6E6
310
E6E6E6E6E6E6E6E6E6E6E6E6E6E6E6E6E6E6E6E6E6E6E6E6E6E6E6E6E6E6E6E6E6E6E6E676E6E676E6E6E6E6E6E676E6E6E6E6E6E6E6E6E6E6E6E6E6E6E6E6E6E6E6E6E6E6E6E6E6E6E6E6E6E676E6E6E6E6E6E676E6E6E6E6E6E6E6E6E67676E6E6E6E6E6E6E6E6E6E6E6E6E6E6E6E6E6E6E6E6E6E6E6E6E6E6E6E6E6E6E6
310
E6E6F5DCF5F5F5F5F5F5F5F5F5F5F5F5F5F5F5F5F5F5F5F5F5F5F5F5F5F5F5F5F5F5F5F5F5F5DCBEDCF5F5F5F5F5F5F5F5F5F5F5F5F5F5F5F5F5F5F5F5F5F5F5F5F5F5F5F5F5F5F5F5F5F5DCF5E6E6E6E6282828E6E6E6E6E6E6E6E6E6E6E6E6E6E6E6E6E6E6E6E6E6E6E6E6E6E6E6E6E6E6E6E6E6E6E6E6E6E6E6E6E6E6E6
310
E6E6E6E6E6E6E6E6E6E6E6E6E6E6E6E6E6E6E6E6E6E6E6E6E6E6E6E6E6E6E6E6E6E6E6E6E6E676E6E676E6E6E6E6E6E676E6E6E6E6E6E6E6E6E6E6E6E6E6E6E6E6E6E6E6E6E6E6E6E6E6E6E6E6E6E676E6E6E6E6E6E676E6E6E6E6E6E6E6E6E67676E6E6E6E6E6E6E6E6E6E6E6E6E6E6E6E6E6E6E6E6E6E6E6E6E6E6E6E6E6
310
E6E6E6E6F5DCE6E6E6E6E6E6E6E6E6E6E6E6E6E6E6E6E6E6E6E6E6E6E6E6E6E6E6E6E6E6E6E6E6E6DCBEDCE6E6E6E6E6E6E6E6E6E6E6E6E6E6E6E6E6E6E6E6E6E6E6E6E6E6E6E6E6E6E6E6E6E6DCF5E6E6E6E6282828E6E6E6E6E6E6E6E6E6E6E6E6E6E6E6E6E6E6E6E6E6E6E6E6E6E6E6E6E6E6E6E6E6E6E6E6E6E6E6E6E6
310
E6E6E6E6E6E6E6E6E6E6E6E6E6E6E6E6E6E6E6E6E6E6E6E6E6E6E6E6E6E6E6E6E6E6E6E6E6E6E6E676E6E676E6E6E6E6E6E676E6E6E6E6E6E6E6E6E6E6E6E6E6E6E6E6E6E6E6E6E6E6E6E6E6E6E6E6E6E676E6E6E6E6E6E676E6E6E6E6E6E6E6E6E67676E6E6E6E6E6E6E6E6E6E6E6E6E6E6E6E6E6E6E6E6E6E6E6E6E6E6E6
310
E6E6E6E6E6E6F5DCE6E6E6E6E6E6E6E6E6E6E6E6E6E6E6E6E6E6E6E6E6E6E6E6E6E6E6E6E6E6E6E6E6E6DCBEDCE6E6E6E6E6E6E6E6E6E6E6E6E6E6E6E6E6E6E6E6E6E6E6E6E6E6E6E6E6E6E6E6E6E6DCF5E6E6E6E6282828E6E6E6E6E6E6E6E6E6E6E6E6E6E6E6E6E6E6E6E6E6E6E6E6E6E6E6E6E6E6E6E6E6E6E6E6E6E6E6
310
E6E6E6E6E6E6E6E6E6E6E6E6E6E6E6E6E6E6E6E6E6E6E6E6E6E6E6E6E6E6E6E6E6E6E6E6E6E6E6E6E6E676E6E676E6E6E6E6E6E676E6E6E6E6E6E6E6E6E6E6E6E6E6E6E6E6E6E6E6E6E6E6E6E6E6E6E6E6E6E676E6E6E6E6E6E676E6E6E6E6E6E6E6E6E67676E6E6E6E6E6E6E6E6E6E6E6E6E6E6E6E6E6E6E6E6E6E6E6E6E6
310
E6E6E6E6E6E6E6F5DCDCDCDCDCDCDCDCDCDCDCDCDCDCDCDCDCDCDCDCDCDCDCDCDCDCDCDCDCDCDCDCDCDCDCDCDCDCBEDCDCDCDCDCDCDCDCDCDCDCDCDCDCDCDCDCDCDCDCDCDCDCDCDCDCDCDCDCDCDCDCDCDCDCDCF5E6E6E6E6E628E6E6E6E6E6E6E6E6E6E6E6E6E6E6E6E6E6E6E6E6E6E6E6E6E6E6E6E6E6E6E6E6E6E6E6E6E6
310
E6E6E6E6E6E6E6E6E6E6E6E6E6E6E6E6E6E6E6E6E6E6E6E6E6E6E6E6E6E6E6E6E6E6E6E6E6E6E6E6E6E6E6E676E6E676E6E6E6E6E6E676E6E6E6E6E6E6E6E6E6E6E6E6E6E6E6E6E6E6E6E6E6E6E6E6E6E6E6E6E6E676E6E6E6E6E6E676E6E6E6E6E6E6E6E6E67676E6E6E6E6E6E6E6E6E6E6E6E6E6E6E6E6E6E6E6E6E6E6E6
310
E6E6E6E6E6E6E6E6E6DCE6E6E6E6E6E6E6E6E6E6E6E6E6E6E6E6E6E6E6E6E6E6E6E6E6E6E6E6E6E6E6E6E6E6E6E6E6BEE6E6E6E6E6E6E6E6E6E6E6E6E6E6E6E6E6E6E6E6E6E6E6E6E6E6E6E6E6E6E6E6E6E6E6E6DCF5E6E6E6E62828E6E6E6E6E6E6E6E6E6E6E6E6E6E6E6E6E6E6E6E6E6E6E6E6E6E6E6E6E6E6E6E6E6E6E6
310
E6E6E6E6E6E6E6E6E6E6E6E6E6E6E6E6E6E6E6E6E6E6E6E6E6E6E6E6E6E6E6E6E6E6E6E6E6E6E6E6E6E6E6E6E6E676E6E676E6E6E6E6E6E676E6E6E6E6E6E6E6E6E6E6E6E6E6E6E6E6E6E6E6E6E6E6E6E6E6E6E6E6E6E676E6E6E6E6E6E676E6E6E6E6E6E6E6E6767676E6E6E6E6E6E6E6E6E6E6E6E6E6E6E6E6E6E6E6E6E6
310
E6E6E6E6E6E6E6E6E6E6E628F5F5F5F5F5F5F5F5F5F5F5F5F5F5F5F5F5F5F5F5F5F5F5F5F5F5F5F5F5F5F5F5F5F5F5F5F5BEF5F5F5F5F5F5F5F5F5F5F5F5F5F5F5F5F5F5F5F5F5F5F5F5F5F5F5F5F5F5F5F5F5F5F5F5DC28282828282828E6E6E6E6E6E6E6E6E6E6E6E6E6E6E6E6E6E6E6E6E6E6E6E6E6E6E6E6E6E6E6E6E6
310
E6E6E6E6E6E6E6E6E6E6E6E6E6E6E6E6E6E6E6E6E6E6E6E6E6E6E6E6E6E6E6E6E6E6E6E6E6E6E6E6E6E6E6E6E6E6E6E676767676E6E6E6E6E6E676E6E6E6E6E6E6E6E6E6E6E6E6E6E6E6E6E6E6E6E6E6E6E6E6E6E6E6E6E6E676E6E6E6E6E6E676E6E6E6E6E6E6E6E6767676E6E6E6E6E6E6E6E6E6E6E6E6E6E6E6E6E6E6E6
310
E6E6E6E6E6E6E6E6E6E6E6E6E628E6E6E6E6E6E6E6E6E6E6E6E6E6E6E6E6E6E6E6E6E6E6E6E6E6E6E6E6E6E6E6E6E6E6E6E6E6E6E6E6E6E6E6E6E6E6E6E6E6E6E6E6E6E6E6E6E6E6E6E6E6E6E6E6E6E6E6E6E6E6E6E6E6E6E628E6E6E6E6E6E6E6E6E6E6E6E6E6E6E6E6E6E6E6E6E6E6E6E6E6E6E6E6E6E6E6E6E6E6E6E6E6
310
E6E6E6E6E6E6E6E6E6E6E6E6E6E6E6E6E6E6E6E6E6E6E6E6E6E6E6E6E6E6E6E6E6E6E6E6E6E6E6E6E6E6E6E6E6E6E6E6E6E676767676E6E6E6E6E6E676E6E6E6E6E6E6E6E6E6E6E6E6E6E6E6E6E6E6E6E6E6E6E6E6E6E6E6E6E6E676E6E6E6E6E6E676E6E6E6E6E6E6E6E6E67676E6E6E6E6E6E6E6E6E6E6E6E6E6E6E6E6E6
310
E6E6E6E6E6E6E6E6E6E6E6E6E6E6E628E6E6E6E6E6E6E6E6E6E6E6E6E6E6E6E6E6E6E6E6E6E6E6E6E6E6E6E6E6E6E6E6E6E6E6E6E6E6E6E6E6E6E6E6E6E6E6E6E6E6E6E6E6E6E6E6E6E6E6E6E6E6E6E6E6E6E6E6E6E6E6E6E6E6E628E6E6E6E6E6E6E6E6E6E6E6E6E6E6E6E6E6E6E6E6E6E6E6E6E6E6E6E6E6E6E6E6E6E6E6
310
E6E6E6E6E6E6E6E6E6E6E6E6E6E6E6E6E6E6E6E6E6E6E6E6E6E6E6E6E6E6E6E6E6E6E6E6E6E6E6E6E6E6E6E6E6E6E6E6E6E6E6E676E6E676E6E6E6E6E6E676E6E6E6E6E6E6E6E6E6E6E6E6E6E6E6E6E6E6E6E6E6E6E6E6E6E6E6E6E6E676E6E6E6E6E6E676E6E6E6E6E6E6E6E6E67676E6E6E6E6E6E6E6E6E6E6E6E6E6E6E6
310
E6E6E6E6E6E6E6E6E6E6E6E6E6E6E6E6E628E6E6E6E6E6E6E6E6E6E6E6E6E6E6E6E6E6E6E6E6E6E6E6E6E6E6E6E6E6E6E6E6E6E6E6E6E6E6E6E6E6E6E6E6E6E6E6E6E6E6E6E6E6E6E6E6E6E6E6E6E6E6E6E6E6E6E6E6E6E6E6E6E6E6E628E6E6E6E6E6E6E6E6E6E6E6E6E6E6E6E6E6E6E6E6E6E6E6E6E6E6E6E6E6E6E6E6E6
310
E6E6E6E6E6E6E6E6E6E6E6E6E6E6E6E6E6E6E6E6E6E6E6E6E6E6E6E6E6E6E6E6E6E6E6E6E6E6E6E6E6E6E6E6E6E6E6E6E6E6E6E6E6E676E6E676E6E6E6E6E6E676E6E6E6E6E6E6E6E6E6E6E6E6E6E6E6E6E6E6E6E6E6E6E6E6E6E6E6E6E6E676E6E6E6E6E6E676E6E6E6E6E6E6E6E6E67676E6E6E6E6E6E6E6E6E6E6E6E6E6
310
E6E6E6E6E6E6E6E6E6E6E6E6E6E6E6E6E6E6E628E6E6E6E6E6E6E6E6E6E6E6E6E6E6E6E6E6E6E6E6E6E6E6E6E6E6E6E6E6E6E6E6E6E6E6E6E6E6E6E6E6E6E6E6E6E6E6E6E6E6E6E6E6E6E6E6E6E6E6E6E6E6E6E6E6E6E6E6E6E6E6E6E6E6E628E6E6E6E6E6E6E6E6E6E6E6E6E6E6E6E6E6E6E6E6E6E6E6E6E6E6E6E6E6E6E6
310
E6E6E6E6E6E6E6E6E6E6E6E6E6E6E6E6E6E6E6E6E6E6E6E6E6E6E6E6E6E6E6E6E6E6E6E6E6E6E6E6E6E6E6E6E6E6E6E6E6E6E6E6E6E6E6E676E6E676E6E6E6E6E6E676E6E6E6E6E6E6E6E6E6E6E6E6E6E6E6E6E6E6E6E6E6E6E6E6E6E6E6E6E6E676E6E6E6E6E6E676E6E6E6E6E6E6E6E6E67676E6E6E6E6E6E6E6E6E6E6E6
310
E6E6E6E6E6E6E6E6E6E6E6E6E6E6E6E6E6E6E6E6E628E6E6E6E6E6E6E6E6E6E6E6E6E6E6E6E6E6E6E6E6E6E6E6E6E6E6E6E6E6E6E6E6E6E6E6E6E6E6E6E6E6E6E6E6E6E6E6E6E6E6E6E6E6E6E6E6E6E6E6E6E6E6E6E6E6E6E6E6E6E6E6E6E6E6E628E6E6E6E6E6E6E6E6E6E6E6E6E6E6E6E6E6E6E6E6E6E6E6E6E6E6E6E6E6
310
E6E6E6E6E6E6E6E6E6E6E6E6E6E6E6E6E6E6E6E6E6E6E6E6E6E6E6E6E6E6E6E6E6E6E6E6E6E6E6E6E6E6E6E6E6E6E6E6E6E6E6E6E6E6E6E6E6E676E6E676E6E6E6E6E6E676E6E6E6E6E6E6E6E6E6E6E6E6E6E6E6E6E6E6E6E6E6E6E6E6E6E6E6E6E6E676E6E6E6E6E6E676E6E6E6E6E6E6E6E6E67676E6E6E6E6E6E6E6E6E6
310
E6E6E6E6E6E6E6E6E6E6E6E6E6E6E6E6E6E6E6E6E6E6E62828282828282828282828282828282828282828282828282828282828282828282828282828282828282828282828282828282828282828282828282828282828282828282828282828282828E6E6E6E6E6E6E6E6E6E6E6E6E6E6E6E6E6E6E6E6E6E6E6E6E6E6E6
310
E6E6E6E6E6E6E6E6E6E6E6E6E6E6E6E6E6E6E6E6E6E6E6E6E6E6E6E6E6E6E6E6E6E6E6E6E6E6E6E6E6E6E6E6E6E6E6E6E6E6E6E6E6E6E6E6E6E6E6E676E6E676E6E6E6E6E6E676E6E6E6E6E6E6E6E6E6E6E6E6E6E6E6E6E6E6E6E6E6E6E6E6E6E6E6E6E6E676E6E6E6E6E6E676E6E6E6E6E6E6E6E6E67676E6E6E6E6E6E6E6
310
E6E6E6E6E6E6E6E6E6E6E6E6E6E6E6E6E6E6E6E6E6E6E6E6E628E6E6E6E6E6E6E6E6E6E6E6E6E6E6E6E6E6E6E6E6E6E6E6E6E6E6E6E6E6E6E6E6E6E6E6E6282828E6E6E6E6E6E6E6E6E6E6E6E6E6E6E6E6E6E6E6E6E6E6E6E6E6E6E6E6E6E6E6E6E6E6E6E628E6E6E6E6E6E6E6E6E6E6E6E6E6E6E6E6E6E6E6E6E6E6E6E6E6
310
E6E6E6E6E6E6E6E6E6E6E6E6E6E6E6E6E6E6E6E6E6E6E6E6E6E6E6E6E6E6E6E6E6E6E6E6E6E6E6E6E6E6E6E6E6E6E6E6E6E6E6E6E6E6E6E6E6E6E6E6E6E676E6E676E6E6E6E6E6E676E6E6E6E6E6E6E6E6E6E6E6E6E6E6E6E6E6E6E6E6E6E6E6E6E6E6E6E6E6E676E6E6E6E6E6E676E6E6E6E6E6E6E6E6E67676E6E6E6E6E6
310
E6E6E6E6E6E6E6E6E6E6E6E6E6E6E6E6E6E6E6E6E6E6E6E6E6E6E6E6E6E6E6E6E6E6E6E6E6E6E6E6E6E6E6E6E6E6E6E6E6E6E6E6E6E6E6E6E6E6E6E6E6E6E6E6282828E6E6E6E6E6E6E6E6E6E6E6E6E6E6E6E6E6E6E6E6E6E6E6E6E6E6E6E6E6E6E6E6E6E6E6E6E6E6E6E6E6E6E6E6E6E6E6E6E6E6E6E6E6E6E6E6E6E6E6E6
310
E6E6E6E6E6E6E6E6E6E6E6E6E6E6E6E6E6E6E6E6E6E6E6E6E6E6E6E6E6E6E6E6E6E6E6E6E6E6E6E6E6E6E6E6E6E6E6E6E6E6E6E6E6E6E6E6E6E6E6E6E6E6E6E676E6E676E6E6E6E6E6E676E6E6E6E6E6E6E6E6E6E6E6E6E6E6E6E6E6E6E6E6E6E6E6E6E6E6E6E6E6E676E6E6E6E6E6E676E6E6E6E6E6E6E6E6E67676E6E6E6
310
E6E6E6E6E6E6E6E6E6E6E6E6E6E6E6E6E6E6E6E6E6E6E6E6E6E6E6E6E6E6E6E6E6E6E6E6E6E6E6E6E6E6E6E6E6E6E6E6E6E6E6E6E6E6E6E6E6E6E6E6E6E6E6E6E6E6E6E6E6E6E6E6E6E6E6E6E6E6E6E6E6E6E6E6E6E6E6E6E6E6E6E6E6E6E6E6E6E6E6E6E6E6E6E6E6E6E6E6E6E6E6E6E6E6E6E6E6E6E6E6E6E6E6E6E6E6E6
310
E6E6E6E6E6E6E6E6E6E6E6E6E6E6E6E6E6E6E6E6E6E6E6E6E6E6E6E6E6E6E6E6E6E6E6E6E6E6E6E6E6E6E6E6E6E6E6E6E6E6E6E6E6E6E6E6E6E6E6E6E6E6E6E6E6E676E6E676E6E6E6E6E6E676E6E6E6E6E6E6E6E6E6E6E6E6E6E6E6E6E6E6E6E6E6E6E6E6E6E6E6E6E6E676E6E6E6E6E6E676E6E6E6E6E6E6E6E6E67676E6
310
E6E6E6E6E6E6E6E6E6E6E6E6E6E6E6E6E6E6E6E6E6E6E6E6E6E6E6E6E6E6E6E6E6E6E6E6E6E6E6E6E6E6E6E6E6E6E6E6E6E6E6E6E6E6E6E6E6E6E6E6E6E6E6E6E6E6E6E6E6E6E6E6E6E6E6E6E6E6E6E6E6E6E6E6E6E6E6E6E6E6E6E6E6E6E6E6E6E6E6E6E6E6E6E6E6E6E6E6E6E6E6E6E6E6E6E6E6E6E6E6E6E6E6E6E6E6E6
310
E6E6E6E6E6E6E6E6E6E6E6E6E6E6E6E6E6E6E6E6E6E6E6E6E6E6E6E6E6E6E6E6E6E6E6E6E6E6E6E6E6E6E6E6E6E6E6E6E6E6E6E6E6E6E6E6E6E6E6E6E6E6E6E6E6E6E6E676E6E676E6E6E6E6E6E676E6E6E6E6E6E6E6E6E6E6E6E6E6E6E6E6E6E6E6E6E6E6E6E6E6E6E6E6E6E676E6E6E6E6E6E676E6E6E6E6E6E6E6E6E676
310
76E6E6E6E6E6E6E6E6E6E6E6E6E6E6E6E6E6E6E6E6E6E6E6E6E6E6E6E6E6E6E6E6E6E6E6E6E6E6E6E6E6E6E6E6E6E6E6E6E6E6E6E6E6E6E6E6E6E6E6E6E6E6E6E6E6E6E6E6E6E6E6E6E6E6E6E6E6E6E6E6E6E6E6E6E6E6E6E6E6E6E6E6E6E6E6E6E6E6E6E6E6E6E6E6E6E6E6E6E6E6E6E6E6E6E6E6E6E6E6E6E6E6E6E6E6E6
310
E6E6E6E6E6E6E6E6E6E6E6E6E6E6E6E6E6E6E6E6E6E6E6E6E6E6E6E6E6E6E6E6E6E6E6E6E6E6E6E6E6E6E6E6E6E6E6E6E6E6E6E6E6E6E6E6E6E6E6E6E6E6E6E6E6E6E6E6E6E676E6E676E6E6E6E6E6E676E6E6E6E6E6E6E6E6E6E6E6E6E6E6E6E6E6E6E6E6E6E6E6E6E6E6E6E6E6E676E6E6E6E6E6E676E6E6E6E6E6E6E6E6
310
E67676E6E6E6E6E6E6E6E6E6E6E6E6E6E6E6E6E6E6E6E6E6E6E6E6E6E6E6E6E6E6E6E6E6E6E6E6E6E6E6E6E6E6E6E6E6E6E6E6E6E6E6E6E6E6E6E6E6E6E6E6E6E6E6E6E6E6E6E6E6E6E6E6E6E6E6E6E6E6E6E6E6E6E6E6E6E6E6E6E6E6E6E6E6E6E6E6E6E6E6E6E6E6E6E6E6E6E6E6E6E6E6E6E6E6E6E6E6E6E6E6E6E6E6E6
310
E6E6E6E6E6E6E6E6E6E6E6E6E6E6E6E6E6E6E6E6E6E6E6E6E6E6E6E6E6E6E6E6E6E6E6E6E6E6E6E6E6E6E6E6E6E6E6E6E6E6E6E6E6E6E6E6E6E6E6E6E6E6E6E6E6E6E6E6E6E6E6E676E6E676E6E6E6E6E6E676E6E6E6E6E6E6E6E6E6E6E6E6E6E6E6E6E6E6E6E6E6E6E6E6E6E6E6E6E6E676E6E6E6E6E6E676E6E6E6E6E6E6
310
E6E6E67676E6E6E6E6E6E6E6E6E6E6E6E6E6E6E6E6E6E6E6E6E6E6E6E6E6E6E6E6E6E6E6E6E6E6E6E6E6E6E6E6E6E6E6E6E6E6E6E6E6E6E6E6E6E6E6E6E6E6E6E6E6E6E6E6E6E6E6E6E6E6E6E6E6E6E6E6E6E6E6E6E6E6E6E6E6E6E6E6E6E6E6E6E6E6E6E6E6E6E6E6E6E6E6E6E6E6E6E6E6E6E6E6E6E6E6E6E6E6E6E6E6E6
310
E6E6E6E6E6E6E6E6E6E6E6E6E6E6E6E6E6E6E6E6E6E6E6E6E6E6E6E6E6E6E6E6E6E6E6E6E6E6E6E6E6E6E6E6E6E6E6E6E6E6E6E6E6E6E6E6E6E6E6E6E6E6E6E6E6E6E6E6E6E6E6E6E6E676E6E676E6E6E6E6E6E676E6E6E6E6E6E6E6E6E6E6E6E6E6E6E6E6E6E6E6E6E6E6E6E6E6E6E6E6E6E676E6E6E6E6E6E676E6E6E6E6
310
E6E6E6E6E67676E6E6E6E6E6E6E6E6E6E6E6E6E6E6E6E6E6E6E6E6E6E6E6E6E6E6E6E6E6E6E6E6E6E6E6E6E6E6E6E6E6E6E6E6E6E6E6E6E6E6E6E6E6E6E6E6E6E6E6E6E6E6E6E6E6E6E6E6E6E6E6E6E6E6E6E6E6E6E6E6E6E6E6E6E6E6E6E6E6E6E6E6E6E6E6E6E6E6E6E6E6E6E6E6E6E6E6E6E6E6E6E6E6E6E6E6E6E6E6E6
310
E6E6E6E6E6E6E6E6E6E6E6E6E6E6E6E6E6E6E6E6E6E6E6E6E6E6E6E6E6E6E6E6E6E6E6E6E6E6E6E6E6E6E6E6E6E6E6E6E6E6E6E6E6E6E6E6E6E6E6E6E6E6E6E6E6E6E6E6E6E6E6E6E6E6E6E676E6E676E6E6E6E6E6E676E6E6E6E6E6E6E6E6E6E6E6E6E6E6E6E6E6E6E6E6E6E6E6E6E6E6E6E6E6E676E6E6E6E6E6E676E6E6
310
E6E6E6E6E6E6E6767676767676767676767676767676767676767676767676767676767676767676767676767676767676767676767676767676767676767676767676767676767676767676767676767676767676767676767676767676767676767676767676767676767676767676767676767676767676767676767676
310
7676767676767676767676767676767676767676767676767676767676767676767676767676767676767676767676767676767676767676767676767676767676767676767676767676767676767676E676E6E6E6E6E6E676E6E6E6E6E6E6E6E6E6E6E6E6E6E6E6E6E6E6E6E6E6E6E6E6E6E6E6E6E6E676E6E6E6E6E6E676
310
E6E6E6E6E6E6E6E6E6E676E6E6E6E6E6E6E6E6E6E6E6E6E6E6E6E676E6E6E6E6E6E6E6E6E6E6E6E6E6E6E6E6E676E6E6E6E6E6E6E6E6E6E6E6E6E6E6E6E676E6E6E6E6E6E6E6E6E6E6E6E6E6E6E6E6E676E6E6E6E6E6E6E6E6E6E6E6E6E6E6E6E676E6E6E6E6E6E6E6E6E6E6E6E6E6E6E6E6E676E6E6E6E6E6E6E6E6E6E6E6
310
E6E6E6E6E67676E6E6E6E6E6E6E6E6E6E6E6E6E6E6E6E676E6E6E6E6E6E6E6E6E6E6E6E6E6E6E6E67676E6E6E6E6E6E6E6E6E6E6E6E6E6E6E6E676E6E6E6E6E6E6E6E6E6E6E6E67676E6E6E6E6E6E6E676E6E676E6E6E6E6E6E676E6E6E6E6E6E6E6E6E6E6E6E6E6E6E6E6E6E6E6E6E6E6E6E6E6E6E6E6E6E676E6E6E6E6E6
310
E676E6E6E6E6E6E6E6E6E6E6E6E6E6E6E6E6E6E6E6E6E6E6E6E6E6E6E676E6E6E6E6E6E6E6E6E6E6E6E6E6E6E6E6E6E6E6E6E6E6E6E6E6E6E6E6E6E6E6E6E6E676E6E6E6E6E6E6E6E6E6E6E6E6E6E6E6E6E6E6E6E6E6E6E6E6E6E6E6E6E6E6E6E6E6E676E6E6E6E6E6E6E6E6E6E6E6E6E6E6E6E6E6E6E6E6E6E6E6E6E6E6E6
310
E6E6E6E6E6E6E676E6E6E6E6E6E6E6E6E6E6E6E6E6E6E6E6E6E6E6E6E6E6E6E6E6E6E6E6E6E6E6E6E6E67676E6E6E6E6E6E6E6E6E6E6E6E6E6E6E6E6E6E6E6E6E6E6E6E6E6E6E6E6E67676E6E6E6E6E6E6E6E6E6E676E6E6E6E6E6E676E6E6E6E6E6E6E6E6E6E6E6E6E6E6E6E6E6E6E6E6E6E6E6E6E6E6E6E6E6E676E6E6E6
310
E6E6E676767676767676767676767676767676767676767676767676767676767676767676767676767676767676767676767676767676767676767676767676767676767676767676767676767676767676767676767676767676767676767676767676767676767676767676767676767676767676767676767676767676
310
76767676767676767676767676767676767676767676767676767676767676767676767676767676767676767676767676767676767676767676767676767676767676767676767676767676767676767676767676767676E6E6E6E6E6E676E6E6E6E6E6E6E6E6E6E6E6E6E6E6E6E6E6E6E6E6E6E6E6E6E6E6E6E6E6E676E6
310
E6E6E6E6E6E6E6E6E6E6E6E6E6E6E6E6E6E6E6E6E6E6E6E6E6E6E6E6E6E6E6E6E6E6E6E6E6E6E6E6E6E6E6E6E6E6E6E6E6E6E6E6E6E6E6E6E6E6E6E6E6E6E6E6E6E6E6E6E6E6E6E6E6E6E6E6E6E6E6E6E6E6E6E6E6E6E6E6E6E6E6E6E6E6E6E6E6E6E6E6E6E6E6E6E6E6E6E6E6E6E6E6E6E6E6E6E6E6E6E6E6E6E6E6E6E6E6
310
E6E6E6E6E6E6E6E6E6E6E6E6E6E6E6E6E6E6E6E6E6E6E6E6E6E6E6E6E6E6E6E6E6E6E6E6E6E6E6E6E6E6E6E6E6E6E6E6E6E6E6E6E6E6E6E6E6E6E6E6E6E6E6E6E6E6E6E6E6E6E6E6E6E6E6E6E6E6E6E6E6E6E6E6E6E6E6E6E6E6E6E6E6E6E6E676E6E6E6E6E6E6E6E6E6E6E6E6E6E6E6E6E6E6E6E6E6E6E6E6E6E6E6E6E6E6
310
76E6E6E6E6E6E6E6E6E6E6E6E6E6E6E6E6E6E6E6E6E6E6E6E6E6E6E6E6E6E6E6E6E6E6E6E6E6E6E6E6E6E6E6E6E6E6E6E6E6E6E6E6E6E6E6E6E6E6E6E6E6E6E6E6E6E6E6E6E6E6E6E6E6E6E6E6E6E6E6E6E6E6E6E6E6E6E6E6E6E6E6E6E6E6E6E6E6E6E6E6E6E6E6E6E6E6E6E6E6E6E6E6E6E6E6E6E6E6E6E6E6E6E6E6E6E6
310
E6E6E6E6E6E6E6E6E6E6E6E6E6E6E6E6E6E6E6E6E6E6E6E6E6E6E6E6E6E6E6E6E6E6E6E6E6E6E6E6E6E6E6E6E6E6E6E6E6E6E6E6E6E6E6E6E6E6E6E6E6E6E6E6E6E6E6E6E6E6E6E6E6E6E6E6E6E6E6E6E6E6E6E6E6E6E6E6E6E6E6E6E6E6E6E6E6E676E6E6E6E6E6E6E6E6E6E6E6E6E6E6E6E6E6E6E6E6E6E6E6E6E6E6E6E6
310
E6E676E6E6E6E6E6E6E6E6E6E6E6E6E6E6E6E6E6E6E6E6E6E6E6E6E6E6E6E6E6E6E6E6E6E6E6E6E6E6E6E6E6E6E6E6E6E6E6E6E6E6E6E6E6E6E6E6E6E6E6E6E6E6E6E6E6E6E6E6E6E6E6E6E6E6E6E6E6E6E6E6E6E6E6E6E6E6E6E6E6E6E6E6E6E6E6E6E6E6E6E6E6E6E6E6E6E6E6E6E6E6E6E6E6E6E6E6E6E6E6E6E6E6E6E6
310
E6E6E6E6E6E6E6E6E6E6E6E6E6E6E6E6E6E6E6E6E6E6E6E6E6E6E6E6E6E6E6E6E6E6E6E6E6E6E6E6E6E6E6E6E6E6E6E6E6E6E6E6E6E6E6E6E6E6E6E6E6E6E6E6E6E6E6E6E6E6E6E6E6E6E6E6E6E6E6E6E6E6E6E6E6E6E6E6E6E6E6E6E6E6E6E6E6E6E6E676E6E6E6E6E6E6E6E6E6E6E6E6E6E6E6E6E6E6E6E6E6E6E6E6E6E6
310
E6E6E6E676E6E6E6E6E6E6E6E6E6E6E6E6E6E6E6E6E6E6E6E6E6E6E6E6E6E6E6E6E6E6E6E6E6E6E6E6E6E6E6E6E6E6E6E6E6E6E6E6E6E6E6E6E6E6E6E6E6E6E6E6E6E6E6E6E6E6E6E6E6E6E6E6E6E6E6E6E6E6E6E6E6E6E6E6E6E6E6E6E6E6E6E6E6E6E6E6E6E6E6E6E6E6E6E6E6E6E6E6E6E6E6E6E6E6E6E6E6E6E6E6E6E6
310
E6E6E6E6E6E6E6E6E6E6E6E6E6E6E6E6E6E6E6E6E6E6E6E6E6E6E6E6E6E6E6E6E6E6E6E6E6E6E6E6E6E6E6E6E6E6E6E6E6E6E6E6E6E6E6E6E6E6E6E6E6E6E6E6E6E6E6E6E6E6E6E6E6E6E6E6E6E6E6E6E6E6E6E6E6E6E6E6E6E6E6E6E6E6E6E6E6E6E6E6E6E676E6E6E6E6E6E6E6E6E6E6E6E6E6E6E6E6E6E6E6E6E6E6E6E6
310
E6E6E6E6E6E676E6E6E6E6E6E6E6E6E6E6E6E6E6E6E6E6E6E6E6E6E6E6E6E6E6E6E6E6E6E6E6E6E6E6E6E6E6E6E6E6E6E6E6E6E6E6E6E6E6E6E6E6E6E6E6E6E6E6E6E6E6E6E6E6E6E6E6E6E6E6E6E6E6E6E6E6E6E6E6E6E6E6E6E6E6E6E6E6E6E6E6E6E6E6E6E6E6E6E6E6E6E6E6E6E6E6E6E6E6E6E6E6E6E6E6E6E6E6E6E6
310
E6E6E6E6E6E6E6E6E6E6E6E6E6E6E6E6E6E6E6E6E6E6E6E6E6E6E6E6E6E6E6E6E6E6E6E6E6E6E6E6E6E6E6E6E6E6E6E6E6E6E6E6E6E6E6E6E6E6E6E6E6E6E6E6E6E6E6E6E6E6E6E6E6E6E6E6E6E6E6E6E6E6E6E6E6E6E6E6E6E6E6E6E6E6E6E6E6E6E6E6E6E6E6E676E6E6E6E6E6E6E6E6E6E6E6E6E6E6E6E6E6E6E6E6E6E6
310
E6E6E6E6E6E6E6E676E6E6E6E6E6E6E6E6E6E6E6E6E6E6E6E6E6E6E6E6E6E6E6E6E6E6E6E6E6E6E6E6E6E6E6E6E6E6E6E6E6E6E6E6E6E6E6E6E6E6E6E6E6E6E6E6E6E6E6E6E6E6E6E6E6E6E6E6E6E6E6E6E6E6E6E6E6E6E6E6E6E6E6E6E6E6E6E6E6E6E6E6E6E6E6E6E6E6E6E6E6E6E6E6E6E6E6E6E6E6E6E6E6E6E6E6E6E6
310
E6E6E6E6E6E6E6E6E6E6E6E6E6E6E6E6E6E6E6E6E6E6E6E6E6E6E6E6E6E6E6E6E6E6E6E6E6E6E6E6E6E6E6E6E6E6E6E6E6E6E6E6E6E6E6E6E6E6E6E6E6E6E6E6E6E6E6E6E6E6E6E6E6E6E6E6E6E6E6E6E6E6E6E6E6E6E6E6E6E6E6E6E6E6E6E6E6E6E6E6E6E6E6E6E6E676E6E6E6E6E6E6E6E6E6E6E6E6E6E6E6E6E6E6E6E6
310
E6E6E6E6E6E6E6E6E6E6767676767676767676767676767676767676767676767676767676767676767676767676767676767676767676767676767676767676767676767676767676767676767676767676767676767676767676767676767676767676767676767676767676767676767676767676767676767676767676
310
76767676767676767676767676767676767676767676767676767676767676767676767676767676767676767676767676767676767676767676767676767676767676767676767676767676767676767676767676767676767676767676767676767676767676767676767676E6E6E6E6E6E6E6E6E6E6E6E6E6E6E6E6E6E6
310
E6E6E6E6E6E6E6E6E6E6E6E6E6E6E6E6E6E6E6E6E6E6E6E6E6E6E6E6E6E6E6E6E6E6E6E6E6E6E6E6E6E6E6E6E6E6E6E6E6E6E6E6E6E6E6E6E6E6E6E6E6E6E6E6E6E6E6E6E6E6E6E6E6E6E6E6E6E6E6E6E6E6E6E6E6E6E6E6E6E6E6E6E6E6E6E6E6E6E6E6E6E6E6E6E6E6E6E6E6E6E6E6E6E6E6E6E6E6E6E6E6E6E6E6E6E6E6
310
E6E6E6E6E6E6E6E6E6E6E6E6E6E6E6E6E6E6E6E6E6E6E6E6E6E6E6E6E6E6E6E6E6E6E6E6E6E6E6E6E6E6E6E6E6E6E6E6E6E6E6E6E6E6E6E6E6E6E6E6E6E6E6E6E6E6E6E6E6E6E6E6E6E6E6E6E6E6E6E6E6E6E6E6E6E6E6E6E6E6E6E6E6E6E6E6E6E6E6E6E6E6E6E6E6E6E6E6E6E6E6E6E6E6E6E6E6E6E6E6E6E6E6E6E6E6
  0
XRECORD
  5
BAB
102
{ACAD_REACTORS
330
24D
102
}
330
24D
100
AcDbXrecord
280
     1
102
MATERIAL
148
0.0
149
0.0
149
0.0
 93
        0
 94
      127
282
     0
 72
     0
 77
     0
171
     0
175
     0
179
     0
273
     0
  0
XRECORD
  5
24F
102
{ACAD_REACTORS
330
24D
102
}
330
24D
100
AcDbXrecord
280
     1
270
     1
271
     1
  0
XRECORD
  5
24E
102
{ACAD_REACTORS
330
24D
102
}
330
24D
100
AcDbXrecord
280
     1
270
     1
271
     1
  0
XRECORD
  5
252
102
{ACAD_REACTORS
330
24D
102
}
330
24D
100
AcDbXrecord
280
     1
270
     1
271
     1
  0
XRECORD
  5
251
102
{ACAD_REACTORS
330
24D
102
}
330
24D
100
AcDbXrecord
280
     1
270
     1
271
     1
  0
XRECORD
  5
253
102
{ACAD_REACTORS
330
24D
102
}
330
24D
100
AcDbXrecord
280
     1
270
     1
271
     1
  0
XRECORD
  5
250
102
{ACAD_REACTORS
330
24D
102
}
330
24D
100
AcDbXrecord
280
     1
270
     1
271
     1
  0
XRECORD
  5
BAA
102
{ACAD_REACTORS
330
245
102
}
330
245
100
AcDbXrecord
280
     1
102
MATERIAL
148
0.0
149
0.0
149
0.0
 93
        0
 94
      127
282
     0
 72
     0
 77
     0
171
     0
175
     0
179
     0
273
     0
  0
XRECORD
  5
247
102
{ACAD_REACTORS
330
245
102
}
330
245
100
AcDbXrecord
280
     1
270
     1
271
     1
  0
XRECORD
  5
246
102
{ACAD_REACTORS
330
245
102
}
330
245
100
AcDbXrecord
280
     1
270
     1
271
     1
  0
XRECORD
  5
24A
102
{ACAD_REACTORS
330
245
102
}
330
245
100
AcDbXrecord
280
     1
270
     1
271
     1
  0
XRECORD
  5
249
102
{ACAD_REACTORS
330
245
102
}
330
245
100
AcDbXrecord
280
     1
270
     1
271
     1
  0
XRECORD
  5
24B
102
{ACAD_REACTORS
330
245
102
}
330
245
100
AcDbXrecord
280
     1
270
     1
271
     1
  0
XRECORD
  5
248
102
{ACAD_REACTORS
330
245
102
}
330
245
100
AcDbXrecord
280
     1
270
     1
271
     1
  0
XRECORD
  5
BAC
102
{ACAD_REACTORS
330
255
102
}
330
255
100
AcDbXrecord
280
     1
102
MATERIAL
148
0.0
149
0.0
149
0.0
 93
        0
 94
      127
282
     0
 72
     0
 77
     0
171
     0
175
     0
179
     0
273
     0
  0
XRECORD
  5
257
102
{ACAD_REACTORS
330
255
102
}
330
255
100
AcDbXrecord
280
     1
270
     1
271
     1
  0
XRECORD
  5
256
102
{ACAD_REACTORS
330
255
102
}
330
255
100
AcDbXrecord
280
     1
270
     1
271
     1
  0
XRECORD
  5
25A
102
{ACAD_REACTORS
330
255
102
}
330
255
100
AcDbXrecord
280
     1
270
     1
271
     1
  0
XRECORD
  5
259
102
{ACAD_REACTORS
330
255
102
}
330
255
100
AcDbXrecord
280
     1
270
     1
271
     1
  0
XRECORD
  5
25B
102
{ACAD_REACTORS
330
255
102
}
330
255
100
AcDbXrecord
280
     1
270
     1
271
     1
  0
XRECORD
  5
258
102
{ACAD_REACTORS
330
255
102
}
330
255
100
AcDbXrecord
280
     1
270
     1
271
     1
  0
CELLSTYLEMAP
  5
BA2
102
{ACAD_REACTORS
330
BA1
102
}
330
BA1
100
AcDbCellStyleMap
 90
        3
300
CELLSTYLE
  1
TABLEFORMAT_BEGIN
 90
        5
170
     1
 91
        0
 92
    32768
 62
   257
 93
        1
300
CONTENTFORMAT
  1
CONTENTFORMAT_BEGIN
 90
        0
 91
        0
 92
      512
 93
        0
300

 40
0.0
140
1.0
 94
        5
 62
     0
340
F
144
0.25
309
CONTENTFORMAT_END
171
     0
 94
        0
309
TABLEFORMAT_END
  1
CELLSTYLE_BEGIN
 90
        1
 91
        1
300
_TITLE
309
CELLSTYLE_END
300
CELLSTYLE
  1
TABLEFORMAT_BEGIN
 90
        5
170
     1
 91
        0
 92
        0
 62
   257
 93
        1
300
CONTENTFORMAT
  1
CONTENTFORMAT_BEGIN
 90
        0
 91
        0
 92
      512
 93
        0
300

 40
0.0
140
1.0
 94
        5
 62
     0
340
F
144
0.18
309
CONTENTFORMAT_END
171
     0
 94
        0
309
TABLEFORMAT_END
  1
CELLSTYLE_BEGIN
 90
        2
 91
        1
300
_HEADER
309
CELLSTYLE_END
300
CELLSTYLE
  1
TABLEFORMAT_BEGIN
 90
        5
170
     1
 91
        0
 92
        0
 62
   257
 93
        1
300
CONTENTFORMAT
  1
CONTENTFORMAT_BEGIN
 90
        0
 91
        0
 92
      512
 93
        0
300

 40
0.0
140
1.0
 94
        2
 62
     0
340
F
144
0.18
309
CONTENTFORMAT_END
171
     0
 94
        0
309
TABLEFORMAT_END
  1
CELLSTYLE_BEGIN
 90
        3
 91
        2
300
_DATA
309
CELLSTYLE_END
  0
XRECORD
  5
BD3
102
{ACAD_REACTORS
330
BA1
102
}
330
BA1
100
AcDbXrecord
280
     1
102
ACAD_ROUNDTRIP_PRE2007_TABLESTYLE
 90
      512
 91
        0
  1

 92
      512
 93
        0
  2

 94
      512
 95
        0
  3

  0
XRECORD
  5
BB8
102
{ACAD_REACTORS
330
BB7
102
}
330
BB7
100
AcDbXrecord
280
     1
102
RTVSPropertyOp0
 70
     1
102
RTVSPropertyOp1
 70
     1
102
RTVSPropertyOp2
 70
     1
102
RTVSPropertyOp3
 70
     1
102
RTVSPropertyOp4
 70
     1
102
RTVSPropertyOp5
 70
     1
102
RTVSPropertyOp6
 70
     1
102
RTVSPropertyOp7
 70
     1
102
RTVSPropertyOp8
 70
     1
102
RTVSPropertyOp9
 70
     1
102
RTVSPropertyOp10
 70
     1
102
RTVSPropertyOp11
 70
     1
102
RTVSPropertyOp12
 70
     1
102
RTVSPropertyOp13
 70
     1
102
RTVSPropertyOp14
 70
     1
102
RTVSPropertyOp15
 70
     1
102
RTVSPropertyOp16
 70
     1
102
RTVSPropertyOp17
 70
     1
102
RTVSPropertyOp18
 70
     1
102
RTVSPropertyOp19
 70
     1
102
RTVSPropertyOp20
 70
     1
102
RTVSPropertyOp21
 70
     1
102
RTVSPropertyOp22
 70
     1
102
RTVSPropertyOp23
 70
     1
102
RTVSPropertyOp24
 70
     1
102
RTVSPropertyOp25
 70
     1
102
RTVSPropertyOp26
 70
     1
102
RTVSPropertyOp27
 70
     1
  0
XRECORD
  5
BBC
102
{ACAD_REACTORS
330
BBB
102
}
330
BBB
100
AcDbXrecord
280
     1
102
RTVSPropertyOp0
 70
     1
102
RTVSPropertyOp1
 70
     1
102
RTVSPropertyOp2
 70
     1
102
RTVSPropertyOp3
 70
     1
102
RTVSPropertyOp4
 70
     1
102
RTVSPropertyOp5
 70
     1
102
RTVSPropertyOp6
 70
     1
102
RTVSPropertyOp7
 70
     1
102
RTVSPropertyOp8
 70
     1
102
RTVSPropertyOp9
 70
     1
102
RTVSPropertyOp10
 70
     1
102
RTVSPropertyOp11
 70
     1
102
RTVSPropertyOp12
 70
     1
102
RTVSPropertyOp13
 70
     1
102
RTVSPropertyOp14
 70
     1
102
RTVSPropertyOp15
 70
     1
102
RTVSPropertyOp16
 70
     1
102
RTVSPropertyOp17
 70
     1
102
RTVSPropertyOp18
 70
     1
102
RTVSPropertyOp19
 70
     1
102
RTVSPropertyOp20
 70
     1
102
RTVSPropertyOp21
 70
     1
102
RTVSPropertyOp22
 70
     1
102
RTVSPropertyOp23
 70
     1
102
RTVSPropertyOp24
 70
     1
102
RTVSPropertyOp25
 70
     1
102
RTVSPropertyOp26
 70
     1
102
RTVSPropertyOp27
 70
     1
  0
XRECORD
  5
BBA
102
{ACAD_REACTORS
330
BB9
102
}
330
BB9
100
AcDbXrecord
280
     1
102
RTVSPropertyOp0
 70
     1
102
RTVSPropertyOp1
 70
     1
102
RTVSPropertyOp2
 70
     1
102
RTVSPropertyOp3
 70
     1
102
RTVSPropertyOp4
 70
     1
102
RTVSPropertyOp5
 70
     1
102
RTVSPropertyOp6
 70
     1
102
RTVSPropertyOp7
 70
     1
102
RTVSPropertyOp8
 70
     1
102
RTVSPropertyOp9
 70
     1
102
RTVSPropertyOp10
 70
     1
102
RTVSPropertyOp11
 70
     1
102
RTVSPropertyOp12
 70
     1
102
RTVSPropertyOp13
 70
     1
102
RTVSPropertyOp14
 70
     1
102
RTVSPropertyOp15
 70
     1
102
RTVSPropertyOp16
 70
     1
102
RTVSPropertyOp17
 70
     1
102
RTVSPropertyOp18
 70
     1
102
RTVSPropertyOp19
 70
     1
102
RTVSPropertyOp20
 70
     1
102
RTVSPropertyOp21
 70
     1
102
RTVSPropertyOp22
 70
     1
102
RTVSPropertyOp23
 70
     1
102
RTVSPropertyOp24
 70
     1
102
RTVSPropertyOp25
 70
     1
102
RTVSPropertyOp26
 70
     1
102
RTVSPropertyOp27
 70
     1
  0
XRECORD
  5
BB6
102
{ACAD_REACTORS
330
BB5
102
}
330
BB5
100
AcDbXrecord
280
     1
102
RTVSPropertyOp0
 70
     1
102
RTVSPropertyOp1
 70
     1
102
RTVSPropertyOp2
 70
     1
102
RTVSPropertyOp3
 70
     1
102
RTVSPropertyOp4
 70
     1
102
RTVSPropertyOp5
 70
     1
102
RTVSPropertyOp6
 70
     1
102
RTVSPropertyOp7
 70
     1
102
RTVSPropertyOp8
 70
     1
102
RTVSPropertyOp9
 70
     1
102
RTVSPropertyOp10
 70
     1
102
RTVSPropertyOp11
 70
     1
102
RTVSPropertyOp12
 70
     1
102
RTVSPropertyOp13
 70
     1
102
RTVSPropertyOp14
 70
     1
102
RTVSPropertyOp15
 70
     1
102
RTVSPropertyOp16
 70
     1
102
RTVSPropertyOp17
 70
     1
102
RTVSPropertyOp18
 70
     1
102
RTVSPropertyOp19
 70
     1
102
RTVSPropertyOp20
 70
     1
102
RTVSPropertyOp21
 70
     1
102
RTVSPropertyOp22
 70
     1
102
RTVSPropertyOp23
 70
     1
102
RTVSPropertyOp24
 70
     1
102
RTVSPropertyOp25
 70
     1
102
RTVSPropertyOp26
 70
     1
102
RTVSPropertyOp27
 70
     1
  0
XRECORD
  5
BC4
102
{ACAD_REACTORS
330
BC3
102
}
330
BC3
100
AcDbXrecord
280
     1
102
RTVSPropertyOp0
 70
     1
102
RTVSPropertyOp1
 70
     1
102
RTVSPropertyOp2
 70
     1
102
RTVSPropertyOp3
 70
     1
102
RTVSPropertyOp4
 70
     1
102
RTVSPropertyOp5
 70
     1
102
RTVSPropertyOp6
 70
     1
102
RTVSPropertyOp7
 70
     1
102
RTVSPropertyOp8
 70
     1
102
RTVSPropertyOp9
 70
     1
102
RTVSPropertyOp10
 70
     1
102
RTVSPropertyOp11
 70
     1
102
RTVSPropertyOp12
 70
     1
102
RTVSPropertyOp13
 70
     1
102
RTVSPropertyOp14
 70
     1
102
RTVSPropertyOp15
 70
     1
102
RTVSPropertyOp16
 70
     1
102
RTVSPropertyOp17
 70
     1
102
RTVSPropertyOp18
 70
     1
102
RTVSPropertyOp19
 70
     1
102
RTVSPropertyOp20
 70
     1
102
RTVSPropertyOp21
 70
     1
102
RTVSPropertyOp22
 70
     1
102
RTVSPropertyOp23
 70
     1
102
RTVSPropertyOp24
 70
     1
102
RTVSPropertyOp25
 70
     1
102
RTVSPropertyOp26
 70
     1
102
RTVSPropertyOp27
 70
     1
  0
XRECORD
  5
BCC
102
{ACAD_REACTORS
330
BCB
102
}
330
BCB
100
AcDbXrecord
280
     1
102
RTVSPropertyOp0
 70
     1
102
RTVSPropertyOp1
 70
     1
102
RTVSPropertyOp2
 70
     1
102
RTVSPropertyOp3
 70
     1
102
RTVSPropertyOp4
 70
     1
102
RTVSPropertyOp5
 70
     1
102
RTVSPropertyOp6
 70
     1
102
RTVSPropertyOp7
 70
     1
102
RTVSPropertyOp8
 70
     1
102
RTVSPropertyOp9
 70
     1
102
RTVSPropertyOp10
 70
     1
102
RTVSPropertyOp11
 70
     1
102
RTVSPropertyOp12
 70
     1
102
RTVSPropertyOp13
 70
     1
102
RTVSPropertyOp14
 70
     1
102
RTVSPropertyOp15
 70
     1
102
RTVSPropertyOp16
 70
     1
102
RTVSPropertyOp17
 70
     1
102
RTVSPropertyOp18
 70
     1
102
RTVSPropertyOp19
 70
     1
102
RTVSPropertyOp20
 70
     1
102
RTVSPropertyOp21
 70
     1
102
RTVSPropertyOp22
 70
     1
102
RTVSPropertyOp23
 70
     1
102
RTVSPropertyOp24
 70
     1
102
RTVSPropertyOp25
 70
     1
102
RTVSPropertyOp26
 70
     1
102
RTVSPropertyOp27
 70
     1
  0
XRECORD
  5
BBE
102
{ACAD_REACTORS
330
BBD
102
}
330
BBD
100
AcDbXrecord
280
     1
102
RTVSPropertyOp0
 70
     1
102
RTVSPropertyOp1
 70
     1
102
RTVSPropertyOp2
 70
     1
102
RTVSPropertyOp3
 70
     1
102
RTVSPropertyOp4
 70
     1
102
RTVSPropertyOp5
 70
     1
102
RTVSPropertyOp6
 70
     1
102
RTVSPropertyOp7
 70
     1
102
RTVSPropertyOp8
 70
     1
102
RTVSPropertyOp9
 70
     1
102
RTVSPropertyOp10
 70
     1
102
RTVSPropertyOp11
 70
     1
102
RTVSPropertyOp12
 70
     1
102
RTVSPropertyOp13
 70
     1
102
RTVSPropertyOp14
 70
     1
102
RTVSPropertyOp15
 70
     1
102
RTVSPropertyOp16
 70
     1
102
RTVSPropertyOp17
 70
     1
102
RTVSPropertyOp18
 70
     1
102
RTVSPropertyOp19
 70
     1
102
RTVSPropertyOp20
 70
     1
102
RTVSPropertyOp21
 70
     1
102
RTVSPropertyOp22
 70
     1
102
RTVSPropertyOp23
 70
     1
102
RTVSPropertyOp24
 70
     1
102
RTVSPropertyOp25
 70
     1
102
RTVSPropertyOp26
 70
     1
102
RTVSPropertyOp27
 70
     1
  0
XRECORD
  5
BC2
102
{ACAD_REACTORS
330
BC1
102
}
330
BC1
100
AcDbXrecord
280
     1
102
RTVSPropertyOp0
 70
     1
102
RTVSPropertyOp1
 70
     1
102
RTVSPropertyOp2
 70
     1
102
RTVSPropertyOp3
 70
     1
102
RTVSPropertyOp4
 70
     1
102
RTVSPropertyOp5
 70
     1
102
RTVSPropertyOp6
 70
     1
102
RTVSPropertyOp7
 70
     1
102
RTVSPropertyOp8
 70
     1
102
RTVSPropertyOp9
 70
     1
102
RTVSPropertyOp10
 70
     1
102
RTVSPropertyOp11
 70
     1
102
RTVSPropertyOp12
 70
     1
102
RTVSPropertyOp13
 70
     1
102
RTVSPropertyOp14
 70
     1
102
RTVSPropertyOp15
 70
     1
102
RTVSPropertyOp16
 70
     1
102
RTVSPropertyOp17
 70
     1
102
RTVSPropertyOp18
 70
     1
102
RTVSPropertyOp19
 70
     1
102
RTVSPropertyOp20
 70
     1
102
RTVSPropertyOp21
 70
     1
102
RTVSPropertyOp22
 70
     1
102
RTVSPropertyOp23
 70
     1
102
RTVSPropertyOp24
 70
     1
102
RTVSPropertyOp25
 70
     1
102
RTVSPropertyOp26
 70
     1
102
RTVSPropertyOp27
 70
     1
  0
XRECORD
  5
BD2
102
{ACAD_REACTORS
330
BD1
102
}
330
BD1
100
AcDbXrecord
280
     1
102
RTVSPropertyOp0
 70
     0
102
RTVSPropertyOp1
 70
     0
102
RTVSPropertyOp2
 70
     0
102
RTVSPropertyOp3
 70
     0
102
RTVSPropertyOp4
 70
     0
102
RTVSPropertyOp5
 70
     0
102
RTVSPropertyOp6
 70
     0
102
RTVSPropertyOp7
 70
     0
102
RTVSPropertyOp8
 70
     0
102
RTVSPropertyOp9
 70
     0
102
RTVSPropertyOp10
 70
     0
102
RTVSPropertyOp11
 70
     0
102
RTVSPropertyOp12
 70
     0
102
RTVSPropertyOp13
 70
     0
102
RTVSPropertyOp14
 70
     2
102
RTVSPropertyOp15
 70
     0
102
RTVSPropertyOp16
 70
     0
102
RTVSPropertyOp17
 70
     0
102
RTVSPropertyOp18
 70
     0
102
RTVSPropertyOp19
 70
     0
102
RTVSPropertyOp20
 70
     0
102
RTVSPropertyOp21
 70
     0
102
RTVSPropertyOp22
 70
     0
102
RTVSPropertyOp23
 70
     0
102
RTVSPropertyOp24
 70
     0
102
RTVSPropertyOp25
 70
     0
102
RTVSPropertyOp26
 70
     0
102
RTVSPropertyOp27
 70
     0
  0
XRECORD
  5
BCA
102
{ACAD_REACTORS
330
BC9
102
}
330
BC9
100
AcDbXrecord
280
     1
102
RTVSPropertyOp0
 70
     1
102
RTVSPropertyOp1
 70
     1
102
RTVSPropertyOp2
 70
     1
102
RTVSPropertyOp3
 70
     1
102
RTVSPropertyOp4
 70
     1
102
RTVSPropertyOp5
 70
     1
102
RTVSPropertyOp6
 70
     1
102
RTVSPropertyOp7
 70
     1
102
RTVSPropertyOp8
 70
     1
102
RTVSPropertyOp9
 70
     1
102
RTVSPropertyOp10
 70
     1
102
RTVSPropertyOp11
 70
     1
102
RTVSPropertyOp12
 70
     1
102
RTVSPropertyOp13
 70
     1
102
RTVSPropertyOp14
 70
     1
102
RTVSPropertyOp15
 70
     1
102
RTVSPropertyOp16
 70
     1
102
RTVSPropertyOp17
 70
     1
102
RTVSPropertyOp18
 70
     1
102
RTVSPropertyOp19
 70
     1
102
RTVSPropertyOp20
 70
     1
102
RTVSPropertyOp21
 70
     1
102
RTVSPropertyOp22
 70
     1
102
RTVSPropertyOp23
 70
     1
102
RTVSPropertyOp24
 70
     1
102
RTVSPropertyOp25
 70
     1
102
RTVSPropertyOp26
 70
     1
102
RTVSPropertyOp27
 70
     1
  0
XRECORD
  5
BAE
102
{ACAD_REACTORS
330
BAD
102
}
330
BAD
100
AcDbXrecord
280
     1
102
RTVSPropertyOp0
 70
     1
102
RTVSPropertyOp1
 70
     1
102
RTVSPropertyOp2
 70
     1
102
RTVSPropertyOp3
 70
     1
102
RTVSPropertyOp4
 70
     1
102
RTVSPropertyOp5
 70
     1
102
RTVSPropertyOp6
 70
     1
102
RTVSPropertyOp7
 70
     1
102
RTVSPropertyOp8
 70
     1
102
RTVSPropertyOp9
 70
     1
102
RTVSPropertyOp10
 70
     1
102
RTVSPropertyOp11
 70
     1
102
RTVSPropertyOp12
 70
     1
102
RTVSPropertyOp13
 70
     1
102
RTVSPropertyOp14
 70
     1
102
RTVSPropertyOp15
 70
     1
102
RTVSPropertyOp16
 70
     1
102
RTVSPropertyOp17
 70
     1
102
RTVSPropertyOp18
 70
     1
102
RTVSPropertyOp19
 70
     1
102
RTVSPropertyOp20
 70
     1
102
RTVSPropertyOp21
 70
     1
102
RTVSPropertyOp22
 70
     1
102
RTVSPropertyOp23
 70
     1
102
RTVSPropertyOp24
 70
     1
102
RTVSPropertyOp25
 70
     1
102
RTVSPropertyOp26
 70
     1
102
RTVSPropertyOp27
 70
     1
  0
XRECORD
  5
BB0
102
{ACAD_REACTORS
330
BAF
102
}
330
BAF
100
AcDbXrecord
280
     1
102
RTVSPropertyOp0
 70
     1
102
RTVSPropertyOp1
 70
     1
102
RTVSPropertyOp2
 70
     1
102
RTVSPropertyOp3
 70
     1
102
RTVSPropertyOp4
 70
     1
102
RTVSPropertyOp5
 70
     1
102
RTVSPropertyOp6
 70
     1
102
RTVSPropertyOp7
 70
     1
102
RTVSPropertyOp8
 70
     1
102
RTVSPropertyOp9
 70
     1
102
RTVSPropertyOp10
 70
     1
102
RTVSPropertyOp11
 70
     1
102
RTVSPropertyOp12
 70
     1
102
RTVSPropertyOp13
 70
     1
102
RTVSPropertyOp14
 70
     1
102
RTVSPropertyOp15
 70
     1
102
RTVSPropertyOp16
 70
     1
102
RTVSPropertyOp17
 70
     1
102
RTVSPropertyOp18
 70
     1
102
RTVSPropertyOp19
 70
     1
102
RTVSPropertyOp20
 70
     1
102
RTVSPropertyOp21
 70
     1
102
RTVSPropertyOp22
 70
     1
102
RTVSPropertyOp23
 70
     1
102
RTVSPropertyOp24
 70
     1
102
RTVSPropertyOp25
 70
     1
102
RTVSPropertyOp26
 70
     1
102
RTVSPropertyOp27
 70
     1
  0
XRECORD
  5
BB2
102
{ACAD_REACTORS
330
BB1
102
}
330
BB1
100
AcDbXrecord
280
     1
102
RTVSPropertyOp0
 70
     1
102
RTVSPropertyOp1
 70
     1
102
RTVSPropertyOp2
 70
     1
102
RTVSPropertyOp3
 70
     1
102
RTVSPropertyOp4
 70
     1
102
RTVSPropertyOp5
 70
     1
102
RTVSPropertyOp6
 70
     1
102
RTVSPropertyOp7
 70
     1
102
RTVSPropertyOp8
 70
     1
102
RTVSPropertyOp9
 70
     1
102
RTVSPropertyOp10
 70
     1
102
RTVSPropertyOp11
 70
     1
102
RTVSPropertyOp12
 70
     1
102
RTVSPropertyOp13
 70
     1
102
RTVSPropertyOp14
 70
     1
102
RTVSPropertyOp15
 70
     1
102
RTVSPropertyOp16
 70
     1
102
RTVSPropertyOp17
 70
     1
102
RTVSPropertyOp18
 70
     1
102
RTVSPropertyOp19
 70
     1
102
RTVSPropertyOp20
 70
     1
102
RTVSPropertyOp21
 70
     1
102
RTVSPropertyOp22
 70
     1
102
RTVSPropertyOp23
 70
     1
102
RTVSPropertyOp24
 70
     1
102
RTVSPropertyOp25
 70
     1
102
RTVSPropertyOp26
 70
     1
102
RTVSPropertyOp27
 70
     1
  0
XRECORD
  5
BB4
102
{ACAD_REACTORS
330
BB3
102
}
330
BB3
100
AcDbXrecord
280
     1
102
RTVSPropertyOp0
 70
     1
102
RTVSPropertyOp1
 70
     1
102
RTVSPropertyOp2
 70
     1
102
RTVSPropertyOp3
 70
     1
102
RTVSPropertyOp4
 70
     1
102
RTVSPropertyOp5
 70
     1
102
RTVSPropertyOp6
 70
     1
102
RTVSPropertyOp7
 70
     1
102
RTVSPropertyOp8
 70
     1
102
RTVSPropertyOp9
 70
     1
102
RTVSPropertyOp10
 70
     1
102
RTVSPropertyOp11
 70
     1
102
RTVSPropertyOp12
 70
     1
102
RTVSPropertyOp13
 70
     1
102
RTVSPropertyOp14
 70
     1
102
RTVSPropertyOp15
 70
     1
102
RTVSPropertyOp16
 70
     1
102
RTVSPropertyOp17
 70
     1
102
RTVSPropertyOp18
 70
     1
102
RTVSPropertyOp19
 70
     1
102
RTVSPropertyOp20
 70
     1
102
RTVSPropertyOp21
 70
     1
102
RTVSPropertyOp22
 70
     1
102
RTVSPropertyOp23
 70
     1
102
RTVSPropertyOp24
 70
     1
102
RTVSPropertyOp25
 70
     1
102
RTVSPropertyOp26
 70
     1
102
RTVSPropertyOp27
 70
     1
  0
XRECORD
  5
BCE
102
{ACAD_REACTORS
330
BCD
102
}
330
BCD
100
AcDbXrecord
280
     1
102
RTVSPropertyOp0
 70
     0
102
RTVSPropertyOp1
 70
     0
102
RTVSPropertyOp2
 70
     0
102
RTVSPropertyOp3
 70
     0
102
RTVSPropertyOp4
 70
     0
102
RTVSPropertyOp5
 70
     0
102
RTVSPropertyOp6
 70
     0
102
RTVSPropertyOp7
 70
     0
102
RTVSPropertyOp8
 70
     0
102
RTVSPropertyOp9
 70
     0
102
RTVSPropertyOp10
 70
     0
102
RTVSPropertyOp11
 70
     0
102
RTVSPropertyOp12
 70
     0
102
RTVSPropertyOp13
 70
     0
102
RTVSPropertyOp14
 70
     2
102
RTVSPropertyOp15
 70
     0
102
RTVSPropertyOp16
 70
     0
102
RTVSPropertyOp17
 70
     0
102
RTVSPropertyOp18
 70
     0
102
RTVSPropertyOp19
 70
     0
102
RTVSPropertyOp20
 70
     0
102
RTVSPropertyOp21
 70
     0
102
RTVSPropertyOp22
 70
     0
102
RTVSPropertyOp23
 70
     0
102
RTVSPropertyOp24
 70
     0
102
RTVSPropertyOp25
 70
     0
102
RTVSPropertyOp26
 70
     0
102
RTVSPropertyOp27
 70
     0
  0
XRECORD
  5
BC8
102
{ACAD_REACTORS
330
BC7
102
}
330
BC7
100
AcDbXrecord
280
     1
102
RTVSPropertyOp0
 70
     1
102
RTVSPropertyOp1
 70
     1
102
RTVSPropertyOp2
 70
     1
102
RTVSPropertyOp3
 70
     1
102
RTVSPropertyOp4
 70
     1
102
RTVSPropertyOp5
 70
     1
102
RTVSPropertyOp6
 70
     1
102
RTVSPropertyOp7
 70
     1
102
RTVSPropertyOp8
 70
     1
102
RTVSPropertyOp9
 70
     1
102
RTVSPropertyOp10
 70
     1
102
RTVSPropertyOp11
 70
     1
102
RTVSPropertyOp12
 70
     1
102
RTVSPropertyOp13
 70
     1
102
RTVSPropertyOp14
 70
     1
102
RTVSPropertyOp15
 70
     1
102
RTVSPropertyOp16
 70
     1
102
RTVSPropertyOp17
 70
     1
102
RTVSPropertyOp18
 70
     1
102
RTVSPropertyOp19
 70
     1
102
RTVSPropertyOp20
 70
     1
102
RTVSPropertyOp21
 70
     1
102
RTVSPropertyOp22
 70
     1
102
RTVSPropertyOp23
 70
     1
102
RTVSPropertyOp24
 70
     1
102
RTVSPropertyOp25
 70
     1
102
RTVSPropertyOp26
 70
     1
102
RTVSPropertyOp27
 70
     1
  0
XRECORD
  5
BD0
102
{ACAD_REACTORS
330
BCF
102
}
330
BCF
100
AcDbXrecord
280
     1
102
RTVSPropertyOp0
 70
     0
102
RTVSPropertyOp1
 70
     0
102
RTVSPropertyOp2
 70
     0
102
RTVSPropertyOp3
 70
     0
102
RTVSPropertyOp4
 70
     0
102
RTVSPropertyOp5
 70
     0
102
RTVSPropertyOp6
 70
     0
102
RTVSPropertyOp7
 70
     0
102
RTVSPropertyOp8
 70
     0
102
RTVSPropertyOp9
 70
     0
102
RTVSPropertyOp10
 70
     0
102
RTVSPropertyOp11
 70
     0
102
RTVSPropertyOp12
 70
     0
102
RTVSPropertyOp13
 70
     0
102
RTVSPropertyOp14
 70
     2
102
RTVSPropertyOp15
 70
     0
102
RTVSPropertyOp16
 70
     0
102
RTVSPropertyOp17
 70
     0
102
RTVSPropertyOp18
 70
     0
102
RTVSPropertyOp19
 70
     0
102
RTVSPropertyOp20
 70
     0
102
RTVSPropertyOp21
 70
     0
102
RTVSPropertyOp22
 70
     0
102
RTVSPropertyOp23
 70
     0
102
RTVSPropertyOp24
 70
     0
102
RTVSPropertyOp25
 70
     0
102
RTVSPropertyOp26
 70
     0
102
RTVSPropertyOp27
 70
     0
  0
XRECORD
  5
BC0
102
{ACAD_REACTORS
330
BBF
102
}
330
BBF
100
AcDbXrecord
280
     1
102
RTVSPropertyOp0
 70
     1
102
RTVSPropertyOp1
 70
     1
102
RTVSPropertyOp2
 70
     1
102
RTVSPropertyOp3
 70
     1
102
RTVSPropertyOp4
 70
     1
102
RTVSPropertyOp5
 70
     1
102
RTVSPropertyOp6
 70
     1
102
RTVSPropertyOp7
 70
     1
102
RTVSPropertyOp8
 70
     1
102
RTVSPropertyOp9
 70
     1
102
RTVSPropertyOp10
 70
     1
102
RTVSPropertyOp11
 70
     1
102
RTVSPropertyOp12
 70
     1
102
RTVSPropertyOp13
 70
     1
102
RTVSPropertyOp14
 70
     1
102
RTVSPropertyOp15
 70
     1
102
RTVSPropertyOp16
 70
     1
102
RTVSPropertyOp17
 70
     1
102
RTVSPropertyOp18
 70
     1
102
RTVSPropertyOp19
 70
     1
102
RTVSPropertyOp20
 70
     1
102
RTVSPropertyOp21
 70
     1
102
RTVSPropertyOp22
 70
     1
102
RTVSPropertyOp23
 70
     1
102
RTVSPropertyOp24
 70
     1
102
RTVSPropertyOp25
 70
     1
102
RTVSPropertyOp26
 70
     1
102
RTVSPropertyOp27
 70
     1
  0
XRECORD
  5
BC6
102
{ACAD_REACTORS
330
BC5
102
}
330
BC5
100
AcDbXrecord
280
     1
102
RTVSPropertyOp0
 70
     1
102
RTVSPropertyOp1
 70
     1
102
RTVSPropertyOp2
 70
     1
102
RTVSPropertyOp3
 70
     1
102
RTVSPropertyOp4
 70
     1
102
RTVSPropertyOp5
 70
     1
102
RTVSPropertyOp6
 70
     1
102
RTVSPropertyOp7
 70
     1
102
RTVSPropertyOp8
 70
     1
102
RTVSPropertyOp9
 70
     1
102
RTVSPropertyOp10
 70
     1
102
RTVSPropertyOp11
 70
     1
102
RTVSPropertyOp12
 70
     1
102
RTVSPropertyOp13
 70
     1
102
RTVSPropertyOp14
 70
     1
102
RTVSPropertyOp15
 70
     1
102
RTVSPropertyOp16
 70
     1
102
RTVSPropertyOp17
 70
     1
102
RTVSPropertyOp18
 70
     1
102
RTVSPropertyOp19
 70
     1
102
RTVSPropertyOp20
 70
     1
102
RTVSPropertyOp21
 70
     1
102
RTVSPropertyOp22
 70
     1
102
RTVSPropertyOp23
 70
     1
102
RTVSPropertyOp24
 70
     1
102
RTVSPropertyOp25
 70
     1
102
RTVSPropertyOp26
 70
     1
102
RTVSPropertyOp27
 70
     1
  0
ENDSEC
  0
EOF
